<?xml version="1.0" standalone="no"?>
<!DOCTYPE svg PUBLIC "-//W3C//DTD SVG 1.1//EN" "http://www.w3.org/Graphics/SVG/1.1/DTD/svg11.dtd" >
<svg xmlns="http://www.w3.org/2000/svg">
<metadata>
Created by FontForge 20120731 at Mon Dec 21 16:02:58 2015
 By Ads
</metadata>
<defs>
<font id="Hui-iconfont" horiz-adv-x="1024" >
  <font-face 
    font-family="Hui-iconfont"
    font-weight="500"
    font-stretch="normal"
    units-per-em="1024"
    panose-1="2 0 6 3 0 0 0 0 0 0"
    ascent="896"
    descent="-128"
    x-height="792"
    bbox="0 -224 1815 870"
    underline-thickness="50"
    underline-position="-100"
    unicode-range="U+0078-E724"
  />
<missing-glyph horiz-adv-x="374" 
d="M34 0v682h272v-682h-272zM68 34h204v614h-204v-614z" />
    <glyph glyph-name=".notdef" horiz-adv-x="374" 
d="M34 0v682h272v-682h-272zM68 34h204v614h-204v-614z" />
    <glyph glyph-name=".null" horiz-adv-x="0" 
 />
    <glyph glyph-name="nonmarkingreturn" horiz-adv-x="341" 
 />
    <glyph glyph-name="x" unicode="x" horiz-adv-x="1001" 
d="M281 543q-27 -1 -53 -1h-83q-18 0 -36.5 -6t-32.5 -18.5t-23 -32t-9 -45.5v-76h912v41q0 16 -0.5 30t-0.5 18q0 13 -5 29t-17 29.5t-31.5 22.5t-49.5 9h-133v-97h-438v97zM955 310v-52q0 -23 0.5 -52t0.5 -58t-10.5 -47.5t-26 -30t-33 -16t-31.5 -4.5q-14 -1 -29.5 -0.5
t-29.5 0.5h-32l-45 128h-439l-44 -128h-29h-34q-20 0 -45 1q-25 0 -41 9.5t-25.5 23t-13.5 29.5t-4 30v167h911zM163 247q-12 0 -21 -8.5t-9 -21.5t9 -21.5t21 -8.5q13 0 22 8.5t9 21.5t-9 21.5t-22 8.5zM316 123q-8 -26 -14 -48q-5 -19 -10.5 -37t-7.5 -25t-3 -15t1 -14.5
t9.5 -10.5t21.5 -4h37h67h81h80h64h36q23 0 34 12t2 38q-5 13 -9.5 30.5t-9.5 34.5q-5 19 -11 39h-368zM336 498v228q0 11 2.5 23t10 21.5t20.5 15.5t34 6h188q31 0 51.5 -14.5t20.5 -52.5v-227h-327z" />
    <glyph glyph-name="uniE600" unicode="&#xe600;" 
d="M896 224h-320v-320h-128v320h-320v128h320v320h128v-320h320v-128z" />
    <glyph glyph-name="uniE601" unicode="&#xe601;" 
d="M520 -145q-116 0 -214.5 57.5t-155.5 155.5t-57 214t57 214.5t155.5 155.5t214.5 57q86 0 165 -34t136.5 -91t91 -136t33.5 -166t-33.5 -166t-91 -136t-136.5 -91t-165 -34zM520 703q-115 0 -212 -56.5t-153.5 -153.5t-56.5 -211t56.5 -211t153.5 -153.5t211.5 -56.5
t211.5 56.5t153.5 153.5t56.5 211q0 86 -33.5 164t-90 134t-134.5 89.5t-163 33.5zM763 282q0 -101 -71 -172.5t-172 -71.5t-172.5 71.5t-71.5 172.5t71.5 172.5t172.5 71.5t172 -71.5t71 -172.5z" />
    <glyph glyph-name="uniE602" unicode="&#xe602;" 
d="M900 591h-776q-22 0 -37.5 -15.5t-15.5 -36.5v-502q0 -21 15.5 -36.5t37.5 -15.5h776q14 0 26.5 7t19.5 19t7 26v502q0 21 -15.5 36.5t-37.5 15.5zM916 37q0 -6 -4.5 -10.5t-11.5 -4.5h-776q-7 0 -11.5 4.5t-4.5 10.5v502q0 6 4.5 10.5t11.5 4.5h776q7 0 11.5 -4.5
t4.5 -10.5v-502zM833 440h-344q-7 0 -12.5 -5.5t-5.5 -13t5.5 -12.5t12.5 -5h344q7 0 12.5 5t5.5 12.5t-5.5 13t-12.5 5.5zM833 324h-344q-3 0 -5.5 -1t-5 -2.5t-4 -4t-2.5 -5t-1 -5.5q0 -5 2.5 -9t6.5 -6.5t9 -2.5h344q7 0 12.5 5.5t5.5 12.5t-5.5 12.5t-12.5 5.5zM833 208
h-344q-7 0 -12.5 -5t-5.5 -12.5t5.5 -13t12.5 -5.5h344q4 0 8.5 2.5t7 6.5t2.5 9t-2.5 9t-7 6.5t-8.5 2.5zM225 422q0 -7 1.5 -14.5t5 -14t8 -12.5t10 -10.5t12 -7.5t14 -5t14.5 -2q28 0 47 19.5t19 46.5q0 28 -19 47t-46.5 19t-46.5 -19t-19 -47zM290 321q-45 0 -75.5 -43
t-30.5 -88q0 -36 31.5 -55.5t74.5 -19.5q12 0 23 1.5t21.5 4.5t19.5 7.5t17 10.5t13.5 13.5t9 17t3.5 20.5q0 20 -7.5 42.5t-21 42.5t-34 33t-44.5 13z" />
    <glyph glyph-name="uniE603" unicode="&#xe603;" 
d="M933 679q-5 2 -10 2q-14 0 -24 -10q-3 -1 -45.5 -22.5t-112 -56.5t-152 -76.5t-167 -84t-155 -78t-117.5 -59.5t-52 -27q-25 -13 -23 -35q2 -19 20 -25q23 -7 256 -80l4 -2l14 44l-223 70l686 357q-206 -233 -383 -434q-13 -14 -19.5 -29.5t-6.5 -32.5v-135v-47v-2
q1 -9 8 -15t16 -6t15.5 6t7.5 15q1 168 0 181q-1 17 9 29q105 118 410 464q-9 -44 -36.5 -181.5t-51.5 -256.5t-25 -122.5t-3 -3.5h-2q-11 4 -246 75l-4 1l-15 -44l5 -2l12 -4l238 -72q1 0 3 -0.5t3.5 -1t2.5 -0.5h4q18 0 31.5 11.5t16.5 30.5q2 8 49 244q32 154 53.5 262.5
t22.5 113.5l1 3q5 26 -15 36z" />
    <glyph glyph-name="uniE604" unicode="&#xe604;" 
d="M514 729q-90 0 -171.5 -35t-141 -94t-94.5 -140.5t-35 -171.5t35 -171.5t94.5 -140.5t141 -94t171.5 -35t171.5 35t140.5 94t94 140.5t35 171.5q0 60 -16 117t-44.5 105.5t-69 89.5t-89 69.5t-105.5 44t-117 15.5zM514 -113q-109 0 -201.5 53.5t-146 146t-53.5 201.5
t53.5 201.5t146 146t201.5 53.5t201.5 -53.5t146 -146t53.5 -201.5t-53.5 -201.5t-146 -146t-201.5 -53.5zM534 509h-40v-201h-201v-40h201v-201h40v201h200v40h-200v201v0z" />
    <glyph glyph-name="uniE605" unicode="&#xe605;" 
d="M837 412h-576v28v1v1q0 102 72 174t175 72q73 0 134.5 -40.5t91.5 -107.5q4 -10 14 -14t19.5 0.5t13.5 14.5t0 19q-36 82 -110 130.5t-163 48.5q-124 0 -211 -87t-87 -210v-1v-1v0v-28h-28q-27 0 -46.5 -19.5t-19.5 -47.5v-409q0 -27 19.5 -46.5t46.5 -19.5h655
q14 0 26 5t21 14t14.5 21.5t5.5 25.5v409q0 18 -9 33.5t-24.5 24.5t-33.5 9zM852 -64q0 -6 -4.5 -10.5t-10.5 -4.5h-655q-3 0 -6 1t-5 3t-3 5t-1 6v409q0 7 4.5 11.5t10.5 4.5h655q3 0 6 -1.5t5 -3.5t3 -5t1 -6v-409zM510 289q-45 0 -76.5 -31.5t-31.5 -75.5q0 -25 11 -47
t30 -38v-38q0 -28 19.5 -47.5t47.5 -19.5h4q27 0 46.5 19.5t19.5 47.5v42q37 32 37 81q0 17 -5.5 33.5t-15.5 29.5t-23 23t-29.5 15.5t-33.5 5.5zM541 135l-12 -8v-68q0 -7 -4.5 -11.5t-10.5 -4.5h-4q-7 0 -11.5 4.5t-4.5 11.5v67l-12 7q-14 7 -21.5 20.5t-7.5 28.5t7.5 28
t20.5 20.5t29 7.5q23 0 39.5 -16.5t16.5 -39.5q0 -31 -25 -47z" />
    <glyph glyph-name="uniE606" unicode="&#xe606;" 
d="M906 463q-33 78 -93 138q-30 30 -65 53.5t-73 39.5q-81 34 -169.5 34t-169.5 -34q-78 -33 -138 -93q-30 -30 -53 -64.5t-40 -73.5q-11 -27 -18.5 -54.5t-11.5 -56.5t-4 -58q0 -88 34 -169q33 -78 93 -138t138 -93q81 -35 169.5 -35t169.5 35q77 33 137.5 93t93.5 138
q34 81 34 169t-34 169zM505 -108q-109 0 -201.5 54t-146 146.5t-53.5 201.5t53.5 201.5t146 146.5t201.5 54t201.5 -54t146.5 -146.5t54 -201.5t-54 -201.5t-146.5 -146.5t-201.5 -54zM689 309h-149v174q0 10 -7 17.5t-17 7.5h-25q-10 0 -17.5 -7.5t-7.5 -17.5v-223
q0 -7 3.5 -12.5t9 -9t12.5 -3.5h198q10 0 17.5 7.5t7.5 17.5v25q0 10 -7.5 17t-17.5 7z" />
    <glyph glyph-name="uniE607" unicode="&#xe607;" 
d="M680 98q-71 30 -176 61q-3 1 -4 3.5t-1 16.5q0 18 13 45q3 7 6.5 16.5t6.5 21.5t4 22q18 20 27 63q6 33 -1 53h-1v3q-2 6 0 30t5 44q2 12 1 27t-8.5 35t-20.5 36q-39 49 -112 54h-34q-41 -3 -68 -18t-43 -36q-19 -24 -25.5 -51.5t-3.5 -46.5q10 -55 6 -74q0 -1 -1 -3
q-7 -20 -1 -53q5 -24 12 -39t14 -24q2 -15 7.5 -32t10.5 -28l2 -6q1 -3 2 -6.5t1.5 -7t1 -7.5t0.5 -9v-10v-10q0 -4 -0.5 -6.5t-1.5 -2.5t-3 -1q-102 -30 -175 -62q-32 -14 -32 -49v-83q0 -11 7.5 -21.5t24.5 -10.5h245h35h6h35h245q17 0 25 10.5t8 21.5v83q0 14 -10 28.5
t-29 22.5zM685 -35h-564v82q0 13 13 19q71 31 171 60q8 3 14 7.5t8.5 9.5t4 12t2 11.5t0.5 11.5q0 37 -11 60q-11 24 -15 50l-1 10l-7 8q-11 13 -18 47q-5 24 -1 34l2 8l1 1q5 26 -6 87q-1 4 -0.5 12.5t2.5 17.5t7.5 20.5t12.5 21.5q6 7 13 13t17.5 12.5t24.5 10.5t31 5h32
q7 -1 13.5 -2t13 -2.5t12.5 -3.5t11.5 -4.5t10.5 -5.5t9.5 -6.5t8.5 -7.5t8 -9q14 -18 19 -39t3 -33q-11 -61 -6 -87v-1l1 -1l1 -5l1 -1q1 -4 1.5 -6.5t0 -9.5t-2.5 -19q-7 -34 -19 -47l-6 -8l-2 -10q-1 -12 -5.5 -26.5t-8.5 -23.5q-16 -34 -16 -59q0 -13 1 -20.5t7.5 -17.5
t20.5 -14q39 -12 92.5 -30.5t79.5 -29.5q18 -7 18 -20v-82zM818 330v132h-33v-132h-132v-33h132v-132h33v132h132v33h-132z" />
    <glyph glyph-name="uniE608" unicode="&#xe608;" 
d="M515 -95q-40 0 -78 7.5t-75 22.5q-17 8 -33.5 17t-32 19.5t-30 22.5t-28.5 25q-27 27 -48 58t-36 66q-7 18 -13 37t-10 38t-5.5 38.5t-1.5 39.5q0 79 31 151.5t83 125t124.5 83.5t152 31t152.5 -31q70 -30 124 -84t84 -124q31 -73 31 -152q0 -106 -52.5 -196.5
t-142.5 -142.5t-196 -52zM515 645q-95 0 -175.5 -46.5t-127.5 -127t-47 -175.5t47 -175.5t127.5 -127.5t175.5 -47t175.5 47t127.5 127.5t47 175.5q0 71 -28 135.5t-75 111.5t-111.5 74.5t-135.5 27.5z" />
    <glyph glyph-name="uniE609" unicode="&#xe609;" 
d="M590 60q-12 0 -20 8t-8 20v307q0 12 8 20t19.5 8t20 -8t8.5 -20v-307q0 -12 -8.5 -20t-19.5 -8v0zM422 60q-6 0 -11 2t-9 6t-6 9t-2 11v307q0 12 8 20t20 8q7 0 13.5 -3.5t10.5 -10t4 -14.5v-307q0 -8 -4 -14.5t-10.5 -10t-13.5 -3.5v0zM869 535h-140v56q0 23 -11 42.5
t-30 30.5t-42 11h-280q-35 0 -59.5 -24.5t-24.5 -59.5v-56h-140q-4 0 -8.5 -1.5t-8 -4t-6 -6t-4 -7.5t-1.5 -9q0 -11 8 -19.5t20 -8.5h727q8 0 14.5 4t10 10.5t3.5 14t-3.5 14t-10 10t-14.5 3.5v0zM338 591q0 12 8 20t20 8h280q12 0 20 -8t8 -20v-56h-336v56zM702 -108h-392
q-35 0 -59.5 24.5t-24.5 59.5v420q0 11 8 19.5t20 8.5q6 0 11 -2.5t9 -6t6 -8.5t2 -11v-420q0 -12 8 -20t20 -8h392q11 0 19.5 8t8.5 20v419q0 11 8 19.5t19.5 8.5t20 -8.5t8.5 -19.5v-419q0 -35 -25 -59.5t-59 -24.5z" />
    <glyph glyph-name="uniE60A" unicode="&#xe60a;" 
d="M512 -224q-111 0 -207.5 40.5t-162.5 109.5t-104 163t-38 199q0 104 40.5 199t109 163.5t163.5 109t199 40.5t199 -40.5t163.5 -109t109 -163.5t40.5 -199q0 -42 -6 -83t-18 -79t-29.5 -73.5t-39.5 -67t-49.5 -59.5t-58.5 -51t-67 -41.5t-74.5 -31.5t-81.5 -19.5
t-88 -6.5zM512 734q-91 0 -173.5 -35.5t-142 -95t-95 -142t-35.5 -173.5q0 -85 30.5 -161.5t85.5 -137.5q32 16 57.5 19.5t67.5 20.5q39 16 65.5 28t34.5 16l7 4l1 82q-4 3 -9.5 9t-17 32t-15.5 61q-14 -4 -20.5 9.5t-8.5 32.5q0 2 -1 14t-1.5 20t0.5 18t4.5 14.5t10.5 2.5
q-9 68 -6 90q4 51 49 91t113 43q40 -1 71 -13.5t49.5 -31.5t28.5 -41.5t12 -47.5q1 -12 -1 -34t-6 -55q7 1 11 -3.5t4.5 -14.5t0.5 -18t-1.5 -20t-1.5 -14q-1 -18 -8 -32t-20 -10q-3 -22 -8.5 -40t-11.5 -29t-11 -19t-9 -11l-3 -3l1 -81q20 -12 107 -47q42 -18 67.5 -22
t57.5 -20q55 61 85.5 137.5t30.5 161.5q0 91 -35.5 173.5t-95 142t-142 95t-173.5 35.5z" />
    <glyph glyph-name="uniE60B" unicode="&#xe60b;" 
d="M506 731q-52 0 -102.5 -11.5t-94.5 -34t-83 -53t-69.5 -69.5t-52.5 -83t-34 -94t-12 -102q0 -91 35.5 -174t95.5 -143t143 -95.5t174 -35.5t173.5 35.5t142.5 95.5t95.5 143t35.5 174q0 40 -7 80t-20.5 76t-33 69.5t-44.5 62.5t-54 54t-62.5 44t-69.5 33t-76 21t-80 7z
M505.5 -139q-114.5 0 -212 56.5t-154 154t-56.5 212t56.5 212t154 154t212 56.5t212 -56.5t154.5 -154t57 -212t-57 -212t-154.5 -154t-212 -56.5zM679 480l-169 -169l-168 168l-30 -30l168 -168l-169 -168l31 -30l168 168l168 -169l30 30l-168 169l170 169z" />
    <glyph glyph-name="uniE60C" unicode="&#xe60c;" 
d="M768 -60h-575q-26 0 -48.5 12.5t-35 34.5t-12.5 48v639q0 40 28 68t68 28h447q13 0 22.5 -9.5t9.5 -22.5q0 -3 -1 -6l-2 -6q-1 -3 -3 -6l-4 -4q-2 -3 -4.5 -4.5t-5.5 -3t-6 -2t-6 -0.5h-447q-9 0 -16.5 -4t-11.5 -11.5t-4 -16.5v-639q0 -13 9 -22.5t23 -9.5h575
q13 0 22 9.5t9 22.5v511q0 14 9.5 23t23 9t22.5 -9t9 -23v-511q0 -39 -28 -67t-67 -28v0zM580 451q-6 0 -12 2t-11 7q-6 6 -8 14.5t0 16.5t8 14l318 318q9 9 22.5 9t22.5 -9.5t9 -22.5t-9 -23l-318 -317q-4 -5 -10 -7t-12 -2zM448 451h-192q-13 0 -22 9t-9 22.5t9 23t22 9.5
h192q5 0 10 -2t9 -5t7 -6.5t4.5 -8.5t1.5 -10q0 -4 -0.5 -7t-2 -6t-3 -5.5t-3.5 -4.5t-5 -4t-5.5 -3t-6 -1.5t-6.5 -0.5zM640 259h-384q-8 0 -15.5 4.5t-11.5 11.5t-4 16t4 16t11.5 11.5t15.5 4.5h384q13 0 22.5 -9.5t9.5 -22.5t-9.5 -22.5t-22.5 -9.5zM640 259z" />
    <glyph glyph-name="uniE60D" unicode="&#xe60d;" 
d="M950 -7q-7 28 -35.5 63t-52 55t-41.5 34q-12 8 -31.5 10t-37.5 0.5t-38 0.5q-16 2 -32 15t-22.5 22t-11.5 18q-3 5 -4 21t0 21l7 15q7 8 14.5 21t14 25.5t12 24t8.5 19.5l3 7q14 18 19.5 35t4 28.5t-5.5 20t-8 13.5l-4 4q1 5 2 27t1.5 44.5t-1.5 33.5q0 1 -1 7.5t-1.5 10
t-2.5 11t-4 13t-6 14t-8 16t-10.5 16.5t-14.5 18q-19 22 -48.5 35t-50.5 15l-20 2h-32h-32q-2 0 -4.5 -0.5t-11.5 -1.5t-17.5 -3t-21 -6t-23 -9t-22 -13.5t-19.5 -18.5q-7 -8 -13 -16t-10 -15.5t-7.5 -14t-6 -13.5t-4 -12t-3 -11t-2 -9t-1.5 -8.5t-1 -6.5q-2 -11 -1.5 -33
t1.5 -45t2 -27q0 -1 -1 -1.5t-3.5 -4t-4.5 -7t-4.5 -9t-3.5 -11.5t-0.5 -14t3 -16t7.5 -18t13 -20q28 -69 52 -97q6 -10 7 -15v-7v-13q0 -7 -1.5 -13.5t-2.5 -9.5q-3 -5 -7.5 -11t-13.5 -16.5t-21 -18t-24 -8.5q-20 -2 -38 -0.5t-38 -0.5t-31 -10q-18 -14 -41.5 -34.5
t-52 -55.5t-35.5 -62q-33 -126 40 -146h796q72 21 40 146zM878 -99q-17 -4 -167.5 -5t-198.5 0q-15 -1 -68.5 -1t-117 0.5t-117.5 2t-63 3.5q-18 5 -18.5 24t7.5 47q4 25 38 62t59 53q12 8 20.5 10t33.5 4t48.5 5.5t43 15t31 28t18 28.5t10.5 23q5 18 3.5 48.5t-6.5 34.5
q-4 5 -18 28t-16 29l-15 35q-11 13 -17 25t-6.5 19.5t1 14t3.5 9.5l4 3q5 3 4 48q0 6 -0.5 17t-0.5 17t0.5 17.5t2.5 25t5 30.5q5 28 32 46.5t51 23.5l25 5h46q97 -14 108 -75q4 -21 6 -39t2 -24t-0.5 -24t-0.5 -20q-1 -45 4 -48q3 -2 6.5 -8.5t-0.5 -24t-22 -38.5
q-1 -3 -3 -8t-6 -14.5t-5 -12.5q-2 -6 -16 -29t-18 -28q-5 -4 -6.5 -34.5t3.5 -48.5q4 -11 10.5 -23t18 -28.5t31 -28t43.5 -15.5q20 -3 40 -4.5t27.5 -2.5t16 -3.5t18.5 -8.5q25 -16 59 -53t38 -62q8 -47 7 -53q-4 -14 -18 -18z" />
    <glyph glyph-name="uniE60E" unicode="&#xe60e;" 
d="M796 -121h-568q-29 0 -49 20t-20 48v364q0 19 9.5 34.5t25 25t34.5 9.5v68q0 74 39 137t105 99.5t140 36.5q56 0 108 -21.5t91 -58t62 -87.5t23 -106v-68q29 0 49 -20t20 -49v-364q0 -28 -20 -48t-49 -20zM512 675q-95 0 -167 -67t-72 -160v-68h478v68q0 93 -72 160
t-167 67zM819 289q0 18 -13 31.5t-32 13.5h-23h-478h-23q-12 0 -22.5 -6t-16.5 -16.5t-6 -22.5v-319q0 -12 6 -22.5t16.5 -16.5t22.5 -6h524q19 0 32 13t13 32v319zM512 61q-14 0 -24 10t-10 24v68q0 15 10 25t24 10q9 0 17 -5t12.5 -12.5t4.5 -17.5v-68q0 -14 -10 -24
t-24 -10z" />
    <glyph glyph-name="uniE60F" unicode="&#xe60f;" 
d="M978 103q-7 -39 -28 -70q-17 -27 -52 -48.5t-94 -21.5q-39 0 -74 5.5t-61.5 17.5t-43.5 32t-20 48.5t8.5 60t34 57t54.5 42t70 16.5q65 0 113 -23v428l-465 -67l4 -571v-25q0 -31 -12.5 -60t-34.5 -51.5t-53 -36t-69 -13.5q-41 0 -76 7.5t-61.5 22.5t-43 37t-19.5 51
t8.5 56t34.5 48.5t55 36.5t70 19q29 4 56.5 0.5t52.5 -12.5v572l646 93v-651z" />
    <glyph glyph-name="uniE610" unicode="&#xe610;" 
d="M920 768h-816q-30 0 -51 -21t-21 -51v-816q0 -30 21 -51t51 -21h816q30 0 51 21t21 51v816q0 30 -21 51t-51 21zM976 -120q0 -23 -16.5 -39.5t-39.5 -16.5h-816q-23 0 -39.5 16.5t-16.5 39.5v816q0 23 16.5 39.5t39.5 16.5h816q23 0 39.5 -16.5t16.5 -39.5v-816zM736 288
h-224v224q0 8 -8 8t-8 -8v-224h-224q-8 0 -8 -8t8 -8h224v-224q0 -8 8 -8t8 8v224h224q8 0 8 8t-8 8z" />
    <glyph glyph-name="uniE611" unicode="&#xe611;" 
d="M781 -75q-4 72 -59 117q-31 25 -104 54q-28 10 -41 16t-28 17t-21 23q-1 20 -1 54v2v4v2q6 7 11.5 15.5t10.5 18.5q12 25 17 49q9 5 16 13q13 17 17 49q1 9 -0.5 18t-4 15t-6.5 12q2 7 4 15t4 18t3.5 21.5t2.5 23.5q6 68 -19 109q-12 18 -29.5 30t-40.5 16q-26 33 -92 33
h-1q-99 -2 -143 -60q-53 -69 -20 -206q-14 -18 -11 -45q4 -32 17 -49q7 -8 16 -13q4 -23 15.5 -46.5t23.5 -36.5q1 -5 1 -8q0 -34 -2 -54q-4 -9 -12 -17t-22 -15t-24.5 -11.5t-30.5 -12.5q-74 -29 -105 -54q-19 -15 -31.5 -33t-19.5 -39t-8 -45q-1 -8 4 -13q2 -2 3.5 -3
t3 -1.5t3.5 -1t4 -0.5h681q8 0 13 6q2 1 3 3.5t1.5 4.5t0.5 5zM102 -58q8 43 44 72q26 21 95 48q16 7 24.5 10t22 9.5t21.5 12t17.5 13t15.5 16t10 18.5q0 2 1 5q1 16 1.5 29t0.5 31q-1 11 -1 17q0 3 -1 6t-3 5.5t-5 4.5q-4 3 -10.5 13.5t-13 27.5t-8.5 33q0 3 -1.5 5.5
t-4 5t-5 3.5t-6.5 2q-1 0 -3.5 2.5t-6 11t-4.5 20.5q-2 16 5 20q11 7 8 20q-16 61 -14 107q1 25 7 44.5t17 33.5q17 22 46 33.5t70 12.5q25 0 42.5 -6t23.5 -16q5 -8 13 -9q36 -5 52 -31q8 -13 12 -31t3.5 -36t-3 -37t-6 -35t-8 -29.5t7.5 -20.5q7 -5 5 -20
q-1 -12 -4.5 -20.5t-6 -11t-4.5 -2.5q-15 -2 -16 -16q-1 -7 -2.5 -13.5t-3.5 -12.5t-4 -11.5t-4.5 -10.5t-5 -9.5t-5 -8t-4 -5.5t-2.5 -3q-10 -5 -10 -16v-15v-2v-10v-8v-10q0 -5 0.5 -10.5t0.5 -10.5t1 -11q0 -3 1 -5q3 -7 7 -14t10 -13t11.5 -11t14.5 -10t15 -8.5t17 -8
t17 -7t19 -7.5q68 -27 94 -48q36 -29 44 -72h-641zM956 9q-6 -6 -14 -6h-110q-7 0 -12.5 5t-5.5 12.5t5.5 13t12.5 5.5h90q-4 17 -12.5 30.5t-22.5 24.5q-22 18 -79 41q-28 11 -42 17.5t-30.5 20t-22.5 30.5q0 1 -0.5 2t-0.5 3q-2 19 -1 51v14q0 10 9 16q3 2 8 11t10.5 22.5
t6.5 26.5q1 6 5.5 10.5t10.5 5.5q7 2 10 26q1 10 -3 14q-12 8 -8 21q7 20 11 43t3 51t-12 45q-6 10 -16.5 16.5t-24.5 8.5q-9 1 -13 9q-5 8 -19.5 12.5t-34.5 4.5q-16 0 -30 -2q-7 -2 -13 2.5t-7.5 12t3 13.5t11.5 7q17 3 36 3q57 0 80 -28q19 -4 34 -14t25 -26
q34 -56 5 -159q12 -15 9 -38q-3 -27 -15 -42q-3 -4 -6.5 -7t-6.5 -5q-9 -44 -32 -68v-7q-1 -28 1 -44q4 -10 16.5 -18.5t23.5 -13.5t33 -14q62 -24 89 -46q23 -19 35.5 -44t14.5 -56q1 -8 -4 -13z" />
    <glyph glyph-name="uniE612" unicode="&#xe612;" 
d="M296 601q-10 0 -19.5 -2t-18 -5.5t-16 -8.5t-14 -11.5t-12 -14.5t-9 -16.5t-5.5 -18t-2 -19.5q0 -39 28 -67.5t68 -28.5t68 28.5t28 68t-28 67.5t-68 28zM296 436q-19 0 -35 9t-25.5 25t-9.5 35q0 12 3.5 22.5t10 19t15 15t19.5 10t22 3.5q19 0 35 -9.5t25.5 -25.5
t9.5 -35q0 -28 -20.5 -48.5t-49.5 -20.5zM853 709h-682q-22 0 -40 -10.5t-28.5 -29t-10.5 -39.5v-683q0 -32 23 -55.5t56 -23.5h682q16 0 31 6.5t25.5 17t16.5 25t6 30.5v683q0 45 -39 68q-19 10 -40 11zM171 -105q-22 0 -37.5 15.5t-15.5 36.5v46l230 206l300 -304h-477z
M906 -53q0 -21 -15.5 -36.5t-37.5 -15.5h-168l-206 209l259 258l168 -168v-247zM906 231l-168 168l-278 -276l-110 112l-232 -207v602q0 14 7 26t19.5 19t26.5 7h682q22 0 37.5 -15t15.5 -37v-399z" />
    <glyph glyph-name="uniE613" unicode="&#xe613;" horiz-adv-x="1000" 
d="M125 550v-625h875v625h-875zM938 29l-126 209l-141 -119l-109 181l-374 -312v500h750v-459zM250 331q0 39 27.5 66.5t66.5 27.5t66.5 -27.5t27.5 -66.5t-27.5 -66t-66.5 -27t-66.5 27t-27.5 66zM875 675h-875v-625h62v562h813v63z" />
    <glyph glyph-name="uniE614" unicode="&#xe614;" 
d="M512 -149q-91 0 -174 35.5t-143 95.5t-95 143t-35 174q0 72 22.5 140.5t64 123.5t96.5 96.5t123 64t141 22.5q91 0 173.5 -35.5t142.5 -95.5t95.5 -143t35.5 -173q0 -73 -22.5 -141.5t-64 -123.5t-96.5 -96.5t-123 -64t-141 -22.5zM512 682q-104 0 -192.5 -51.5
t-140 -139.5t-51.5 -192t51.5 -192.5t140 -140t192.5 -51.5t192.5 51.5t139.5 140t51 192.5q0 52 -13.5 101.5t-38.5 91.5t-60.5 77.5t-77.5 60t-91.5 38.5t-101.5 14zM512 682z" />
    <glyph glyph-name="uniE615" unicode="&#xe615;" 
d="M706 445q-12 9 -27 6.5t-24 -14.5l-196 -267l-92 114q-3 5 -8 8t-10.5 4.5t-11 1t-11 -2.5t-10.5 -6q-11 -9 -12.5 -24t7.5 -26l121 -151q3 -3 6 -5.5t6.5 -4t7.5 -2.5t8 -1h1q4 0 8 1t7.5 3t7 4.5t5.5 6.5l225 305q8 12 6 26.5t-14 23.5zM512 725q-73 0 -141.5 -23
t-124 -64.5t-97 -96.5t-64 -123.5t-22.5 -141.5q0 -92 35.5 -175t95.5 -143t143.5 -95.5t174.5 -35.5t174 35.5t143 95.5t96 143t36 175q0 45 -9.5 89.5t-26.5 84.5t-41.5 76.5t-54.5 66.5t-66.5 54.5t-76 41.5t-84 26.5t-90.5 9.5zM512 -86q-98 0 -181.5 48.5t-132 132
t-48.5 181.5t48.5 181t132 131.5t181.5 48.5t181 -48.5t131.5 -131.5t48.5 -181q0 -59 -18 -114t-51.5 -99.5t-78 -78t-99.5 -52t-114 -18.5z" />
    <glyph glyph-name="uniE616" unicode="&#xe616;" horiz-adv-x="1000" 
d="M879 754h-547q-6 0 -11.5 -1t-11 -2.5t-10.5 -4t-9.5 -6t-8.5 -7.5t-7.5 -8.5t-6 -9.5t-4.5 -10.5t-3 -11.5t-1 -12v-54h-109q-15 0 -28.5 -6t-23 -15.5t-15.5 -23t-6 -28.5v-601q0 -31 21.5 -52t51.5 -21h729q20 0 36.5 9.5t26.5 26.5t10 37v728q0 31 -21.5 52t-51.5 21
zM205 -66q-31 0 -52 21.5t-21 51.5v492q0 20 9.5 37t26.5 26.5t37 9.5h54v-619q0 -5 1 -9.5t2 -9.5h-57zM897 7q0 -30 -21 -51.5t-52 -21.5h-437q-30 0 -51.5 21.5t-21.5 51.5v620q0 20 10 36.5t26.5 26.5t36.5 10h437q31 0 52 -21.5t21 -51.5v-620zM539 615h-152v-191h152
v191zM387 291h456v57h-456v-57zM387 158h456v57h-456v-57zM387 25h456v57h-456v-57zM615 615v-57h228v57h-228zM615 424h228v58h-228v-58z" />
    <glyph glyph-name="uniE617" unicode="&#xe617;" 
d="M626 -189l-1 -1l-209 229l109 119l117 -129l257 282l112 -122v595l-996 -996h631zM648 -212h363v399z" />
    <glyph glyph-name="uniE618" unicode="&#xe618;" 
d="M829 -23h-88v465q0 3 -1 5t-2.5 4t-3 3.5t-4 2t-4.5 0.5h-117q-7 0 -11 -4t-4 -11v-465h-19v348q0 4 -1.5 6.5t-3.5 4.5t-4.5 3.5t-5.5 1.5h-117q-7 0 -11 -4.5t-4 -11.5v-348h-19v560q0 6 -4.5 10.5t-10.5 4.5h-117q-5 0 -8.5 -2t-5.5 -5.5t-2 -7.5v-559q-10 1 -20 5.5
t-18 11.5t-13.5 16t-9 19.5t-3.5 21.5v526q0 6 -4.5 10.5t-10.5 4.5t-10.5 -4.5t-4.5 -10.5v-526q0 -44 31 -74.5t75 -30.5h556q6 0 10.5 4t4.5 11q0 3 -1.5 5.5t-3.5 4.5t-4.5 3.5t-5.5 1.5zM624 427h87v-450h-87v450zM458 310h86v-333h-86v333zM378 522v-545h-86v545h86z
" />
    <glyph glyph-name="uniE619" unicode="&#xe619;" 
d="M514 684q80 0 149.5 -30t122 -82.5t82.5 -122.5t30 -150q0 -79 -30 -148.5t-82.5 -122t-122 -82.5t-149.5 -30t-149.5 30t-122 82.5t-82.5 122t-30 148.5q0 80 30 150t82.5 122.5t122 82.5t149.5 30z" />
    <glyph glyph-name="uniE61A" unicode="&#xe61a;" 
d="M903 217q-7 0 -182 -78l24 193q0 8 -4.5 14t-11.5 7q-15 1 -29 1q-90 0 -157.5 -59.5t-78.5 -148.5q-12 -98 49 -175.5t158 -89.5q5 -1 10 -1t9.5 -0.5t9.5 -0.5q90 0 157.5 60t78.5 149q7 61 -16 117q-2 5 -6.5 8.5t-10.5 3.5zM899 93q-9 -76 -66 -126.5t-133 -50.5
q-12 0 -24 1q-83 10 -134.5 76t-41.5 148q9 76 66.5 126.5t133.5 50.5h6l-25 -206q-1 -11 7.5 -17t17.5 -2q135 59 186 81q12 -40 7 -81zM959 292q-20 49 -63 81.5t-95 38.5q-11 2 -13 -9l-23 -187q-1 -6 5 -10q2 -2 6 -2q2 0 4 1l174 73q2 1 3.5 2.5t2.5 3.5q1 4 -1 8z
M99 748q-9 0 -16.5 -4.5t-11.5 -12t-4 -15.5v-839q0 -4 0.5 -7.5t2 -6.5t4 -6t5 -5t6 -4t7 -2.5t7.5 -0.5q13 0 22.5 9.5t9.5 22.5v839q0 23 -23 30q-5 2 -9 2zM420 138h-219q-6 0 -10.5 -3t-7 -7t-2.5 -10v-126q0 -8 6 -13.5t14 -5.5h262q-21 32 -32 69.5t-11 78.5v17z
M181 362v-127q0 -8 6 -13.5t14 -5.5h235q5 13 11 25t13 23.5t15 22.5t17 20.5t19 18.5t21 17t22.5 15t24 12.5t25.5 10.5h-403q-8 0 -14 -5.5t-6 -13.5zM812 624h-611q-4 0 -6.5 -0.5t-5 -2.5t-4.5 -4.5t-3 -5.5t-1 -6v-126q0 -8 6 -14t14 -6h611q4 0 7.5 1.5t6 4.5t4 6.5
t1.5 7.5v126q0 5 -2.5 9.5t-7 7t-9.5 2.5z" />
    <glyph glyph-name="uniE61B" unicode="&#xe61b;" 
d="M69 383l2 4q5 17 14.5 24t26.5 7h198h17h17h16h17q4 0 7 1t4.5 3.5t2.5 5.5q27 84 83 254q1 4 2.5 7t3.5 6t4.5 5t5.5 4t6 3t6.5 2t6.5 1q29 0 38 -27q5 -14 10 -30.5t9.5 -30t10.5 -31t10 -30t10 -31t10 -30.5q19 -58 23 -71q3 -11 14 -11h234h35q13 0 22 -6.5t13 -18.5
t0.5 -23.5t-13.5 -19.5l-14 -10l-17 -12q-11 -8 -14 -11q-136 -98 -175 -126q-6 -5 -3 -14q18 -56 60 -184q22 -67 22 -69q5 -16 0.5 -27.5t-13.5 -17.5q-22 -17 -47 1q-157 114 -215 156q-9 6 -17 0q-29 -21 -102 -74t-113 -82q-15 -13 -37.5 -6t-24.5 32q-1 4 0 9t3 11
q43 135 81 251q2 5 1 8t-6 7q-30 21 -102.5 73.5t-111.5 81.5q-12 8 -21 31v5zM511 610h-1h-1q-1 -1 -1 -3l-2 -5q-10 -28 -21 -63q-3 -10 -20 -61t-26 -79q-10 -28 -38 -33h-23l-126 4q-9 0 -31 1t-34 2h-49l9 -7q190 -127 202 -136q26 -17 17 -47q-1 -1 -73 -234
q0 -1 -0.5 -3t-1 -4.5t-1.5 -4.5l4 2l4 3q3 2 6.5 5t6.5 5.5t6.5 5.5t6.5 5q132 111 155 130q15 12 31.5 11.5t31.5 -12.5q63 -53 163 -137q1 0 22 -17q1 3 0.5 5t-0.5 4q-60 189 -72 226q-4 13 -3 24q0 9 4 16.5t9 12.5t13 10q46 30 197 132l5 4h-60q-34 -1 -128 -4
q-4 0 -11 -0.5t-11 -0.5h-11q-6 0 -11.5 -0.5t-10.5 -0.5q-15 -2 -26 1.5t-19 12.5t-12 22q-5 14 -29 87t-37 112z" />
    <glyph glyph-name="uniE61C" unicode="&#xe61c;" 
d="M928 -95h-832q-13 0 -22.5 9.5t-9.5 22.5v703q0 3 0.5 6t1.5 5.5t2.5 5t3 4.5t3.5 3.5t4.5 3t5 2.5t5.5 1.5t6 0.5q8 0 15.5 -4.5t12 -11.5t4.5 -16v-671h800q3 0 5.5 -0.5t5 -1.5t5 -2.5t4.5 -3t4 -3.5t3.5 -4.5t2.5 -5t1.5 -5.5t0.5 -6q0 -8 -4.5 -15.5t-12 -12
t-15.5 -4.5zM191 63q-11 0 -19 7q-11 8 -13 21t6 23l192 257q5 6 12.5 9.5t15.5 2.5t15 -5l171 -115l303 241q10 8 23 6.5t21 -11.5q6 -7 7 -15.5t-2 -16.5t-10 -13l-320 -255q-19 -15 -38 -2l-165 111l-174 -232q-5 -6 -11.5 -9.5t-13.5 -3.5z" />
    <glyph glyph-name="uniE61D" unicode="&#xe61d;" 
d="M513 445q-41 0 -76.5 -20.5t-56.5 -56t-21 -77.5q0 -63 45.5 -108.5t109 -45.5t108.5 45.5t45 109t-45 108.5t-109 45zM513 188q-21 0 -40 8t-32.5 22t-22 33t-8.5 40q0 43 30.5 73t72.5 30q21 0 40 -8t33 -22t22 -33t8 -40q0 -42 -30 -72.5t-73 -30.5zM839 406h-14l-2 3
l-4 -2l4 3q-4 10 -8 18l-1 2l11 11q30 31 30 74q0 10 -2 20t-5.5 19.5t-9.5 18t-13 16.5l-14 14q-31 30 -74 30q-21 0 -40 -7.5t-34 -22.5l-10 -11l-3 1q-9 4 -20 8l-2 1v15q0 44 -31 74.5t-74 30.5h-20q-28 0 -52 -14t-38 -38t-14 -53v-15l-3 -1q-3 -1 -6.5 -2.5t-6.5 -2.5
t-6 -3l-3 -1l-11 11q-14 15 -33 22.5t-40 7.5q-44 0 -74 -30l-14 -14q-15 -15 -23 -34t-8 -40q0 -43 31 -74l10 -11l-1 -2q-3 -8 -7 -18l-2 -4h-15q-28 0 -52 -14t-38.5 -38.5t-14.5 -52.5v-20q0 -17 5.5 -33t15 -28.5t22.5 -22.5t29 -15t33 -5h15l2 -4q2 -6 3.5 -10t3.5 -8
l1 -3l-10 -11q-31 -30 -31 -73q0 -21 8 -40.5t23 -33.5l14 -14q30 -31 73.5 -31t73.5 31l11 10l3 -1q8 -4 19 -8l3 -1v-15q0 -43 30.5 -73.5t73.5 -30.5h20q43 0 74 30.5t31 73.5v15l2 1q11 4 20 8l2 1l11 -10q15 -15 34 -23t40 -8t40 8t34 23l14 14q30 30 30 74q0 8 -1 16
t-3.5 16t-6.5 15t-8.5 14t-10.5 12l-11 11l1 3q4 7 8 18l-4 1h5l1 3h14q44 0 74.5 30.5t30.5 73.5v20q0 43 -30.5 74t-74.5 31zM891 328zM766 579zM136 254zM225 39zM475 -85zM550 -86zM893 281v-3q0 -2 -0.5 -3.5t-0.5 -3.5q0 -1 -1 -3v-2q-1 -3 -2 -5q0 -1 -2 -4
q0 -1 -1 -1v-1l-1 -3q-2 -2 -5 -6l-1 -1l-2 -2q-1 -1 -2.5 -2t-2.5 -2q-12 -9 -28 -11h-1h-3h-53l-1 -4q-10 -40 -33 -78l-2 -3l38 -38q6 -6 10 -13.5t5 -17.5v-4v-4v-3q0 -4 -1 -7v-2l-1 -3l-2 -4v-2l-2 -3l-1 -2q-1 -1 -1 -2l-7 -8l-14 -14q-4 -4 -8 -7q-1 -1 -3 -1l-1 -1
l2 -4l-3 3l-4 -2l-5 -1l2 -5l-3 4h-1l-3 -1q-1 0 -3 -0.5t-4 -0.5h-4q-3 0 -8 1q-17 2 -30 15l-38 37l-3 -1q-19 -12 -38.5 -20.5t-39.5 -13.5h-3v-53v-3l-1 -2q-1 -15 -11 -28l-5 -6q-1 -1 -2 -1q-3 -3 -6 -5q-1 -1 -3 -1l-1 -1q-3 -2 -5 -3q-1 0 -5 -1l-1 -1q-2 0 -3 -1
h-4q-2 0 -3.5 -0.5t-3.5 -0.5h-20q-5 0 -10 1q-1 1 -3 1l-2 1q-3 1 -5 1.5t-5 2.5l-1 1q-2 0 -3 1q-3 2 -6 5l-1 1l-2 2q-1 1 -2 2.5t-2 2.5q-9 12 -11 27v2v3v53h-4q-40 10 -78 34l-3 1l-38 -37q-12 -13 -31 -15q-4 -1 -7 -1h-3q-5 1 -8 1q-1 0 -2 1h-2l-1 -4v5l-5 1
q-1 1 -4 3l-2 1q-1 0 -2 1q-5 3 -8 7l-14 14q-4 3 -7 8l-2 3l-1 2l-2 4l-1 4l-1 3q-1 1 -1 2v4q0 1 -1 4v2v4q0 2 1 5q2 18 15 31l37 37l-1 3q-23 38 -34 78v4h-53h-3l-1 -4l-1 4q-15 2 -28 11l-6 6v1q-1 0 -1 1l-5 6l-1 2l-4 -2l3 3v1h-1l-2 4l-1 6l-1 1q0 2 -1 3l-1 10v20
q1 6 1 11q1 1 1 3l1 2l1 4q1 2 3 5v1l1 1q0 1 1 2q1 2 4 6q1 0 1 0.5t1 1.5q2 3 7 6q12 9 27 10l2 1h3h53v3q5 20 13.5 40t19.5 38l2 3l-37 38q-3 2 -5 5t-3 6l-4 6q-1 3 -2 6.5t-1 7.5q-1 5 -1 9v2q1 5 1 7q0 1 1 2v1l1 2q1 3 1 5l2 4l1 1l-4 2l5 -1l1 3q1 2 3 4l4 4l14 14
l2 2q1 1 2.5 2t3.5 2q0 1 3 2l2 1q2 2 4 2q1 1 4 2h3v1h2q3 1 8 1h1h1h1h8q18 -3 30 -15l38 -38l3 2q19 11 38.5 19.5t39.5 13.5l4 1v52v4v1q1 8 3.5 15t7.5 13q3 4 6 7h1v1q4 3 6 4q1 1 1.5 1t1.5 1l1 1q4 1 5.5 2t4.5 1l2 1q2 1 3 1q5 1 10 1h20q5 0 11 -1l3 -1l2 -1
q3 0 4.5 -1t4.5 -2q0 -1 1 -1h1v-1l2 -1q3 -1 6 -5h1l1 -1l2 -2q2 -2 4 -5q9 -12 10 -27l1 -1v-4v-52l3 -1q20 -5 39.5 -13.5t38.5 -19.5l3 -2l38 38q13 12 32 15h6h2h2l7 -1q1 0 4 -1h1q3 -1 5 -2q1 0 2 -0.5t3 -2.5h1q1 0 1 -1q1 0 2 -1q2 -1 4 -2.5t4 -3.5l14 -14
q4 -4 7 -8q0 -1 1 -3l1 -2l1 -1l1 -3q1 -2 2 -5l1 -2v-3q1 -2 1 -8v-1q1 -4 0 -10q-3 -18 -15 -30l-38 -38l2 -3q11 -19 19.5 -38.5t13.5 -39.5l1 -3h53h1q1 0 2 -1h1q16 -1 28 -11q4 -2 7 -6l1 -1q3 -4 5 -6q0 -1 1 -3l1 -1q1 -3 2 -5q1 -1 1 -2t1 -2v-2q1 -2 1 -3
q1 -3 1 -6v-5v-20z" />
    <glyph glyph-name="uniE61E" unicode="&#xe61e;" 
d="M143 -212h123v265h-123v-265zM349 -212h123v389h-123v-389zM579 -212h124v489h-124v-489zM801 -212h124v630h-124v-630zM911 534l49 278l-277 -62l85 -81l-240 -252l-119 108l-345 -356l51 -49h-1l298 307l119 -108l289 301z" />
    <glyph glyph-name="uniE61F" unicode="&#xe61f;" horiz-adv-x="1025" 
d="M0 800v-1024h1024v1024h-1024zM796 231h-227v-227h-114v227h-227v114h227v227h114v-227h227v-114z" />
    <glyph glyph-name="uniE620" unicode="&#xe620;" 
d="M966 -151l-31 523q0 19 -10 35.5t-26 25.5t-35 9h-142v82q0 43 -15.5 80.5t-44.5 66.5q-30 29 -68 45t-81 16q-56 0 -104.5 -28t-76.5 -75.5t-28 -104.5v-82h-142q-19 0 -35.5 -10t-26 -26t-9.5 -34l-33 -524v-1q0 -30 21 -50.5t50 -20.5h766q20 0 36 9.5t25.5 26
t9.5 35.5v2zM378 523q0 56 39.5 95t95.5 39t96 -39.5t40 -94.5v-83h-271v83zM186 382h114l3 -84q-14 -14 -14 -34q0 -26 20 -42q11 -14 29 -14q19 0 28 14q21 13 21 42q0 3 -0.5 5.5t-1 5.5t-1.5 5l-2 6l-2 4l-4 4q-1 2 -3 4v84h273l-1 -84q-14 -14 -14 -34q0 -13 5.5 -24
t14.5 -18q10 -14 29 -14t28 14q21 13 21 42q0 20 -15 34l3 84h106q17 0 24 -0.5t14 -5.5t9.5 -15t2.5 -29q1 -59 14 -228t13 -222q0 -18 -11 -31.5t-26 -13.5h-721q-1 0 -1.5 0.5t-3 1.5t-5 2.5t-5 4.5t-4.5 5.5t-3 6.5t-1 8q0 51 14 239t16 232q1 6 1.5 10t2 10t3.5 10
t6 7.5t10 5.5t14 2v0z" />
    <glyph glyph-name="uniE621" unicode="&#xe621;" 
d="M511 -158q-91 0 -173.5 35.5t-142 95t-95 142.5t-35.5 174t35.5 173.5t95 142.5t142 95.5t173.5 35.5h29v-391h414l2 -31q1 -16 1 -25q0 -61 -16 -119t-45 -107t-70 -90.5t-90 -70t-107 -44.5t-118 -16v0zM484 679q-118 -8 -213 -83l213 -237v320zM484 289l-256 270
q-51 -54 -79 -123.5t-28 -146.5q0 -106 52 -196.5t142 -143t196 -52.5t196 52.5t143 143t53 196.5h-419zM595 401v335h27q57 0 114.5 -22.5t105 -62t79.5 -98t36 -123.5l1 -29h-363zM651 679v-222h247q-17 89 -88.5 150.5t-158.5 71.5z" />
    <glyph glyph-name="uniE622" unicode="&#xe622;" 
d="M512 -48q-21 0 -42 2t-42 5l-197 -119v199q-78 55 -123 135t-45 171q0 107 60 197.5t163.5 143t225.5 52.5t225.5 -52.5t163.5 -143t60 -197.5q0 -53 -16 -104t-45 -94t-70.5 -79.5t-90.5 -62t-107.5 -39.5t-119.5 -14zM512 682q-107 0 -197.5 -45t-143 -122.5
t-52.5 -169.5q0 -56 21 -108.5t58.5 -94.5t88.5 -73l-2 -130l132 80q48 -11 95 -11q107 0 197.5 45t143 123t52.5 169q0 35 -8 68t-23 63t-36.5 57.5t-47.5 50t-58 41t-67 31t-74 19.5t-79 7zM736.5 289q-23.5 0 -40 16.5t-16.5 39.5t16.5 39.5t40.5 16.5q15 0 28 -7.5
t20.5 -20.5t7.5 -28q0 -23 -16.5 -39.5t-40 -16.5zM512 289q-23 0 -39.5 16.5t-16.5 39.5t16.5 39.5t39.5 16.5t39.5 -16.5t16.5 -39.5t-16.5 -39.5t-39.5 -16.5zM287 289q-23 0 -39.5 16.5t-16.5 39.5t16.5 39.5t40 16.5t40 -16.5t16.5 -39.5q0 -15 -7.5 -28t-20.5 -20.5
t-29 -7.5z" />
    <glyph glyph-name="uniE623" unicode="&#xe623;" 
d="M305 324h408v-61h-408v61zM305 206h408v-61h-408v61zM305 88h408v-61h-408v61zM842 595h-230q0 42 -30 72t-72.5 30t-72.5 -30t-30 -72h-229q-11 0 -18.5 -7.5t-7.5 -18.5v-664q0 -4 1.5 -8t3.5 -7t5.5 -5.5t7 -4t8.5 -1.5h664q10 0 17.5 7.5t7.5 18.5v664q0 3 -0.5 6
t-1.5 5.5t-3 4.5l-4 4q-2 2 -4.5 3t-5.5 2t-6 1zM510 646q21 0 36 -15t15 -36.5t-15 -36t-36 -14.5q-11 0 -20.5 4t-16 10.5t-10.5 16t-4 20.5q0 21 15 36t36 15zM802 -56h-585v585h88v-76q0 -11 7.5 -18.5t18.5 -7.5h358q6 0 12 3.5t9.5 9.5t3.5 13v76h88v-585z" />
    <glyph glyph-name="uniE624" unicode="&#xe624;" 
d="M711 64l71 -69q12 -12 12 -29q0 -3 -0.5 -6.5t-1.5 -6t-2.5 -5.5t-3 -5.5t-4.5 -4.5l-4 -4q-3 -2 -5.5 -3.5t-5.5 -2.5t-6.5 -1.5t-6.5 -0.5h-4q-3 0 -5 0.5t-4 1.5l-4 2l-4 2q-2 1 -4 2.5t-3 2.5l-625 605q-6 6 -9 13.5t-3 15.5q0 17 11.5 28.5t28.5 11.5q16 0 28 -11
l109 -105q118 56 246 56q82 0 161.5 -24.5t135.5 -59.5t100 -73t65.5 -66.5t21.5 -38.5q0 -8 -12 -26.5t-37.5 -44.5t-58 -53t-79.5 -55t-98 -46zM502 490q-94 0 -158 -71l72 -69q16 19 38 30t48 11q30 0 56 -15t41 -41t15 -56q0 -50 -38 -84l71 -69q10 9 19 20t16.5 23
t13 25t9.5 26.5t6.5 28.5t2.5 30q0 57 -28.5 106t-77.5 77t-106 28zM530 28q-2 0 -8.5 -0.5t-9.5 -0.5q-88 0 -169.5 23.5t-137 57.5t-97.5 71.5t-61.5 67t-18.5 42.5q0 12 29.5 48.5t76.5 74.5z" />
    <glyph glyph-name="uniE625" unicode="&#xe625;" 
d="M962 219l-450 349l-450 -349v142l450 350l450 -350v-142zM850 232v-338h-226v225h-224v-225h-226v338l338 253z" />
    <glyph glyph-name="uniE626" unicode="&#xe626;" 
d="M798 634l-29 29l-29 29q-58 60 -89 84t-60 24h-315q-43 0 -79.5 -21t-57.5 -57.5t-21 -79.5v-708q0 -66 46.5 -112t111.5 -46h472q65 0 111.5 46t46.5 112v551q0 29 -24 60t-84 89zM827 -66q0 -13 -4 -25t-11 -22t-17 -17t-22 -11t-25 -4h-472q-33 0 -56 23t-23 56v708
q0 33 23 56t56 23h287q10 -2 16 -9t8.5 -19.5t3 -21.5t0.5 -27v-120q0 -16 11.5 -27.5t27.5 -11.5h118q16 0 24 -0.5t20.5 -2.5t18.5 -6t11 -11.5t5 -18.5v-512z" />
    <glyph glyph-name="uniE627" unicode="&#xe627;" 
d="M844 740h-61q-8 0 -16 -3t-13.5 -9.5t-5.5 -14.5t5 -16t13.5 -12.5t16.5 -4.5h61q26 0 43 -17t17 -43v-693q0 -27 -17 -43.5t-43 -16.5h-648q-29 0 -52.5 17t-23.5 43v693q0 17 7.5 31t21.5 21.5t31 7.5h76q23 0 23 33q0 13 -5.5 20t-17.5 7h-76q-60 0 -90 -33.5
t-30 -88.5v-685q0 -27 8.5 -50.5t24.5 -40.5t40 -26t54 -9h650q21 0 38 3.5t31 10.5t25 18t18 25t11 31.5t4 37.5v685q0 35 -13.5 62.5t-41 43.5t-65.5 16zM256 468.5q0 -12.5 9 -21.5t22 -9h452q8 0 15 4t11 11t4 15.5t-4 15.5t-11 11t-15 4h-452q-13 0 -22 -9t-9 -21.5z
M737 333h-450q-5 0 -10 -1.5t-8.5 -4.5t-6.5 -7t-4.5 -8.5t-1.5 -9.5q0 -12 9 -21.5t22 -9.5h452q8 0 15 4.5t11 11.5t4 15q-1 13 -10 22t-22 9zM737 152h-450q-5 0 -10 -1.5t-8.5 -4.5t-6.5 -6.5t-4.5 -8t-1.5 -9.5q0 -9 4 -16t11.5 -11t15.5 -4h452q8 0 15 4t11 11t4 16
q-1 13 -10 21.5t-22 8.5zM408 664h210q9 0 17.5 4.5t14.5 11.5t9.5 16.5t3.5 20.5q0 7 -1.5 13.5t-4.5 12.5t-7.5 10.5t-9.5 8t-11 5.5t-12 2h-209q-19 0 -32.5 -15.5t-13.5 -36.5q0 -7 2 -14t4.5 -12.5t7 -10.5t9.5 -8.5t11 -5.5t12 -2z" />
    <glyph glyph-name="uniE628" unicode="&#xe628;" 
d="M870 -89h-713q-12 0 -24 3t-22 9t-18.5 14.5t-14 18.5t-9 22t-3.5 24v347h895v-347q0 -25 -12 -46t-33.5 -33t-45.5 -12zM632 148l-36 -128h219l36 128h-219zM66 568q0 38 26.5 64.5t64.5 26.5h713q37 0 64 -26.5t27 -64.5v-91h-895v91z" />
    <glyph glyph-name="uniE629" unicode="&#xe629;" 
d="M314 612h562q11 0 22.5 -4t20.5 -11.5t15.5 -17.5t10.5 -23t4 -26v-484q0 -34 -21.5 -58t-51.5 -24h-728q-19 0 -36 11t-27 30t-10 41v388zM534 482q-8 0 -15 -3.5t-12 -9.5t-8 -13.5t-3 -16.5v-61h84v104h-46zM609 482v-407h123v407h-123zM762 482v-104h84v61
q0 9 -3 16.5t-8 13.5t-12 9.5t-15 3.5h-46zM846 345h-84v-107h84v107zM846 205h-84v-130h46q16 0 27 12.5t11 30.5v87zM580 75v130h-84v-87q0 -18 11 -30.5t27 -12.5h46zM496 238h84v107h-84v-107z" />
    <glyph glyph-name="uniE62A" unicode="&#xe62a;" 
d="M746 -22h-466v444q-32 -16 -83.5 -41t-67.5 -33q-52 105 -58 115t-6 17t4 12.5t14 11.5q18 10 156 96h127q0 -33 17.5 -55.5t47.5 -37.5q72 -36 153 -9q37 12 57 39.5t19 62.5h132q23 -17 24 -18q17 -8 42 -20.5t47.5 -24t41.5 -21.5q5 -3 9.5 -11t3.5 -11
q-12 -29 -64 -146q-7 3 -28.5 13.5t-31 15.5t-26.5 13t-31.5 15.5t-28.5 14.5q-2 -44 -2 -45q-1 -76 -2 -397z" />
    <glyph glyph-name="uniE62B" unicode="&#xe62b;" 
d="M949 127q-1 2 -9.5 16.5t-12.5 18t-17 12.5t-33 18l-68 31v53l1 2q2 1 6 6.5t7.5 12t7 18.5t5.5 26q9 -2 17.5 9.5t9.5 22.5q1 13 -3 28t-15 13q6 44 5 58q-3 34 -34 60.5t-77 26.5t-76.5 -26.5t-33.5 -60.5q-1 -8 0.5 -22.5t3.5 -35.5q-10 2 -14 -13t-3 -28
q0 -11 9 -22.5t18 -9.5q3 -22 9.5 -38.5t12.5 -21.5l5 -5l-46 -36q10 -6 54.5 -11.5t52.5 -17.5q30 -47 24 -251h204v106q-3 49 -10 61zM526 218q-61 25 -76 34l-1 59q3 2 7 6.5t12 23.5t11 43q10 -2 20 11t11 24q1 16 -3.5 32t-16.5 14q6 49 5 65q-4 38 -38 67.5t-85 29.5
q-34 0 -62 -14.5t-43.5 -36.5t-17.5 -46q-1 -17 5 -65q-11 2 -15.5 -14.5t-4.5 -31.5q1 -11 11 -24t20 -11q2 -15 6 -28.5t8 -21t7.5 -13t6.5 -8.5l2 -2l-1 -59q-14 -9 -76 -34q-13 -6 -43.5 -18t-44.5 -18t-30.5 -16t-23.5 -21t-10 -58t-2.5 -86.5t1.5 -40.5h614
q0 6 0.5 17t0.5 40t-1 52.5t-4 46t-7 29.5q-7 11 -23.5 21t-30.5 16t-44.5 18t-43.5 18z" />
    <glyph glyph-name="uniE62C" unicode="&#xe62c;" 
d="M784 61q209 -74 209 -125v-109h-962v109q0 51 209 125q96 34 131 70t35 98q0 22 -23 49.5t-33 75.5q-2 12 -9 18t-14.5 8t-14.5 17.5t-9 44.5q0 16 5 26t9 13l5 4q-9 51 -13 90q-4 55 42 114.5t161 59.5t162 -59.5t41 -114.5l-13 -90q19 -9 19 -43q-2 -29 -9 -44.5
t-14.5 -17.5t-14.5 -8t-9 -18q-8 -50 -32 -76.5t-24 -48.5q0 -62 36 -98t130 -70z" />
    <glyph glyph-name="uniE62D" unicode="&#xe62d;" 
d="M883 29q4 -14 7 -36t3 -45q0 -11 -1 -21.5t-3 -20.5q-3 -20 -10 -30q-5 -7 -26 -14q-11 -3 -24 -6t-29 -6q-31 -5 -71 -11q-13 -1 -25.5 -2.5t-25.5 -3t-26 -2.5l-26 -2q-13 -1 -25.5 -2t-24.5 -1q-6 -1 -12 -1h-12q-5 0 -10.5 -0.5t-10.5 -0.5h-10h-9q-9 0 -19.5 0.5
t-21.5 0.5t-23 1q-36 2 -75 5t-76 7q-19 2 -36 4.5t-33 5.5q-10 1 -19.5 2.5t-18 3.5t-15.5 3q-22 5 -27 10q-5 3 -8.5 14.5t-5.5 30.5q-6 38 4 99q5 35 28 53.5t53 29t63 18.5q17 4 31.5 10.5t26.5 14.5q10 6 17.5 12t13 11.5t9 11t5.5 11.5q2 2 2.5 5t1.5 6t1 6v6v8
q0 5 -0.5 9.5t-0.5 9.5q-2 23 -15 35q-6 6 -13 12.5t-15 13.5q-8 6 -13.5 17.5t-10.5 23.5q-3 7 -5.5 14.5t-4.5 15.5q-2 2 -6 7q-3 5 -7 14t-9 25t-6.5 28.5t0.5 22.5q1 11 5 19q0 35 4 71q2 15 5.5 31t7.5 33q3 12 7.5 22.5t10 20.5t12.5 19q18 26 40 43q5 4 10 7l12 8
q5 3 10.5 5.5t11.5 5.5q23 9 47 12q4 1 9 1.5t10 1.5h8q5 1 9 1h9q8 -1 14.5 -1.5t12.5 -1.5t11 -3q15 -3 24 -8t16 -12q3 -4 6 -7l8 -8h19q9 0 18 -2.5t17.5 -9.5t18.5 -20q24 -31 35 -67q6 -18 10 -35.5t6 -33.5q3 -19 4.5 -37.5t2.5 -36.5q2 -5 3 -12t1.5 -17.5
t-1.5 -25.5q-1 -4 -1.5 -7t-0.5 -6t-0.5 -5.5t-1.5 -5t-1.5 -4.5t-1.5 -4q-4 -12 -9 -18q-5 -7 -11 -10q-1 -3 -1 -5l-2 -4q0 -2 -0.5 -4.5t-1.5 -4.5l-2 -4v-4l-2 -4q-2 -4 -3.5 -8t-3.5 -8l-4 -8q-6 -11 -14 -17q-17 -15 -28.5 -24.5t-15.5 -32.5q-3 -15 -2 -29
q0 -3 0.5 -6t1.5 -5.5t1.5 -5.5t2 -6t2.5 -6q7 -15 21.5 -28t41.5 -23q12 -5 24.5 -9t26.5 -8q29 -8 55 -17.5t46 -25.5q10 -7 17.5 -17t11.5 -22v0zM555 62q3 6 0.5 13t-8 13t-12.5 13h-47q-7 -7 -11 -13q-4 -5 -6.5 -11t0.5 -12q7 -13 12 -25q5 -10 11 -16
q-1 -5 -2.5 -11.5t-3.5 -14.5q-4 -17 -7 -35q-2 -9 -3.5 -17.5t-3 -16t-2 -13.5t-0.5 -10q0 -2 0.5 -4t1.5 -4t2 -5q5 -7 11 -14.5t13 -12.5t12 -5h2q2 0 4 1l2 2l4 2q7 5 14 12q3 3 6 6.5t5 7.5l3 7q2 3 2 6t-1 8t-2 12q-3 15 -7 34q-2 9 -4 17.5t-4 17.5q-4 18 -7 28
q6 5 12 14.5t14 25.5v0zM555 62z" />
    <glyph glyph-name="uniE62E" unicode="&#xe62e;" 
d="M797 175l-10 9q-40 30 -33 82q7 50 -8 98t-45 83t-70.5 58t-82.5 27q-108 12 -187.5 -48.5t-92.5 -163.5q-8 -61 13 -116.5t60.5 -93.5t96.5 -55.5t117 -6.5q26 5 43 -14q1 -1 32 -28q-25 -13 -31.5 -32.5t-4.5 -49.5q4 -57 -34 -73q-60 -24 -104 4q-6 4 -12 14t-8 17
l-7 20q-1 4 -1.5 7.5t-0.5 7.5v8v7q0 4 0.5 8.5t0.5 7.5q-1 19 -9.5 32t-25.5 20.5t-32.5 4.5t-28.5 -16q-33 -32 -33 -33q-17 -15 -37.5 -18t-37.5 9q-30 22 -52 51q-8 11 -9 24.5t4 27t15 24.5q5 6 16.5 16.5t15.5 15.5q25 25 15 57q-11 34 -47 39q-1 0 -53 2
q-29 2 -45.5 18t-17.5 46v18v17q1 30 19 47.5t48 18.5h11h10h11h11q12 1 22 5t18 11.5t12 19.5q13 34 -14 61q-18 18 -28 29q-9 9 -12 13q-31 52 39 109q21 17 44.5 16t43.5 -19l16 -16q11 -11 17 -16q28 -26 62 -11q33 14 33 50q-1 32 1 49q1 24 15.5 40.5t37.5 19.5
q30 4 61 0q21 -3 35.5 -19.5t15.5 -39.5q1 -8 0.5 -26t0.5 -25q3 -38 36 -51.5t61 13.5q1 2 3 4l2 2q2 2 4 3.5t4 2.5l2 4q2 1 3.5 3t2.5 3l3 3l3 3q1 1 3 2.5t3 3.5l3 2q52 40 114 -33q19 -22 17.5 -46.5t-21.5 -44.5q-26 -26 -32 -33q-25 -31 -9 -63q16 -31 52 -31h44
q26 -1 43 -16t20 -39q2 -14 2 -28.5t-2 -27.5q-3 -25 -20.5 -40t-42.5 -16h-31q-42 3 -66 -29zM338 333q7 -6 20 -20t23.5 -25t20.5 -21q30 -31 67 -32t67 28q15 15 22.5 32.5t7 35t-8.5 35t-24 33.5q-6 6 -16 15.5t-17 16.5l-16 16q-9 9 -17 18q82 24 151 -24
q53 -37 71.5 -95.5t-3.5 -119.5q-3 -7 -2 -13.5t3.5 -10.5t7.5 -9q99 -97 159 -157q22 -23 21 -48t-24 -45q-13 -11 -27 -14.5t-28.5 1t-27.5 17.5q-85 82 -158 157q-17 17 -39 9q-106 -35 -187 42q-73 69 -53 174q4 3 7 4zM811 21q-29 -3 -31 -30q-1 -6 1.5 -12t7 -10.5
t10.5 -7t13 -2.5q13 0 22.5 9.5t8.5 23.5q-2 27 -32 29z" />
    <glyph glyph-name="uniE62F" unicode="&#xe62f;" 
d="M655 432l-24 -54q38 -35 38 -89q0 -69 -36 -96l24 -46q59 57 59 142q0 86 -61 143zM838 620l-34 -45q105 -123 105 -286t-105 -286l35 -46q56 68 87 153t31 179q0 27 -2.5 54t-8 52t-13 49.5t-17.5 48t-22 45.5t-26 42.5t-30 39.5zM746 528l-31 -47q75 -81 75 -192
q0 -114 -77 -195l32 -45q92 100 92 240q0 138 -91 239zM66 394v-215q0 -22 15 -42t35 -20h150v343h-150q-20 0 -35 -22t-15 -44zM498 617l-209 -154v-352l209 -155q14 0 29.5 6.5t26.5 18.5t11 25v561q0 13 -11 25t-26.5 18.5t-29.5 6.5z" />
    <glyph glyph-name="uniE630" unicode="&#xe630;" 
d="M949 361q10 10 10 26q0 9 -4.5 17.5t-12.5 13.5t-18 5h-1l-261 39l-118 251q-9 23 -32 23q-12 0 -21.5 -7.5t-12.5 -19.5l-116 -247l-261 -39h-3q-14 0 -24 -10.5t-10 -25.5q0 -20 15 -31l190 -193l-45 -275q-1 -5 -1 -10q0 -14 10 -24.5t24 -10.5q10 0 19 6l236 130
l232 -128q4 -3 7.5 -5.5t8 -3.5t9.5 -1q14 0 24.5 10.5t10.5 25.5q0 9 -5 17l-44 269l194 197v1z" />
    <glyph glyph-name="uniE631" unicode="&#xe631;" 
d="M503 -145q-116 0 -214.5 57t-155.5 155.5t-57 214.5t57 214t155.5 155.5t214.5 57.5t214 -57.5t155.5 -155.5t57.5 -214t-57.5 -214.5t-155.5 -155.5t-214 -57zM503 703q-114 0 -211 -56.5t-153.5 -153.5t-56.5 -211t56.5 -211t153.5 -153.5t211 -56.5t211 56.5
t153.5 153.5t56.5 211t-56.5 211t-153.5 153.5t-211 56.5zM809 234q0 -9 -5.5 -16.5t-14 -12t-19.5 -4.5h-534q-16 0 -27.5 9.5t-11.5 23.5v96q0 14 11.5 23.5t27.5 9.5h534q16 0 27.5 -9.5t11.5 -23.5v-96z" />
    <glyph glyph-name="uniE632" unicode="&#xe632;" 
d="M743 735h-660q-7 0 -12.5 -5t-5.5 -12v-858q0 -7 5.5 -12.5t12.5 -5.5h858q5 0 9 2.5t6 6.5t2 9v663zM177 601q0 7 5 12t12 5h440q5 0 9 -2.5t6.5 -6.5t2.5 -8v-104q0 -7 -5 -12t-13 -5h-440q-7 0 -12 5t-5 12v104zM847 -30q0 -4 -2.5 -8t-6.5 -6.5t-8 -2.5h-636
q-7 0 -12 5t-5 12v312q0 2 0.5 4.5t2 4t3 3.5t3.5 3t4 1.5t4 0.5h636q2 0 5 -1t5 -2.5t3.5 -3.5t2.5 -4.5t1 -5.5v-312zM789 248q0 6 -4 10t-10 4h-83q-3 0 -5.5 -1t-4.5 -3t-3 -4.5t-1 -5.5v-83q0 -6 4 -10t10 -4h83q6 0 10 4t4 10v83z" />
    <glyph glyph-name="uniE633" unicode="&#xe633;" 
d="M625.5 705q-114.5 31 -227 0.5t-195.5 -113t-113.5 -197t0 -227.5t112.5 -195.5t197 -113.5q91 -23 178 -10t162 59q21 13 21 36q0 18 -12.5 30t-29.5 12q-10 0 -20 -5q-61 -37 -132 -48t-145 7q-47 13 -88 37t-72.5 56.5t-55 72t-34.5 83.5t-12.5 91t12.5 94
q24 93 91 159.5t158 91t184 -0.5q69 -19 125.5 -62.5t89 -102t44 -128.5t-8.5 -140q-13 -50 -41 -94l1 -1q-2 -4 -3.5 -9t-1.5 -11q0 -17 12 -29t30 -12q23 0 36 21q16 26 28 54.5t20 58.5q31 115 0.5 227.5t-113 195t-197 113.5zM582 259q1 1 11 7t14.5 9.5t14.5 11.5
t15.5 15.5t12 18.5t9.5 24.5t3 28.5q0 34 -18 64t-43 47t-52 23q-93 19 -147 -40q-9 -10 -15.5 -19t-11.5 -19t-8 -20t-5 -22.5t-2.5 -25.5t-0.5 -31h79v16q0 12 1 21.5t4 20.5t9 18.5t16.5 14t25.5 9.5q43 9 70 -18q15 -13 12.5 -38t-22.5 -39l-45 -30q-35 -23 -35 -63v-92
h80v62q0 27 28 46zM514 120q-17 0 -29 -12t-12 -29t12 -29t29 -12t29 12t12 29q0 8 -3.5 15.5t-9 13t-13 9t-15.5 3.5z" />
    <glyph glyph-name="uniE634" unicode="&#xe634;" 
d="M999 198l-183 487h-204l80 -111h64l121 -376h-230l-62 -111h-151l-57 110h-230l121 377h64l80 111h-204l-183 -487v-309h974v309zM512 686l-240 -278h180v-254h120v254h179zM512 686z" />
    <glyph glyph-name="uniE635" unicode="&#xe635;" 
d="M519 384h-46l-33 88h-135l-31 -88h-46l123 323h45zM427 509l-49 134q-2 6 -5 22h-1q-2 -14 -5 -22l-49 -134h109zM565 384v323h92q74 0 122.5 -43t48.5 -115q0 -75 -48.5 -120t-125.5 -45h-89zM607 669v-248h47q61 0 95.5 33.5t34.5 94t-35.5 90.5t-92.5 30h-49z
M916 -103h-777q-13 0 -21.5 -8.5t-8.5 -21t8.5 -21t21.5 -8.5h777q5 0 9.5 1.5t8 4t6 6.5t4 8.5t1.5 8.5q0 13 -8.5 21.5t-20.5 8.5zM241 -56h117q8 0 13 5t5 13v219q0 4 -2.5 8.5t-6.5 6.5t-9 2h-117q-4 0 -7 -1t-5.5 -3.5t-4 -6t-1.5 -6.5v-219q0 -8 5.5 -13t12.5 -5z
M466 99q-4 0 -8.5 -2.5t-6.5 -6.5t-2 -9v-119q0 -8 5 -13t12 -5h118q7 0 12 5t5 13v119q0 7 -5 12.5t-12 5.5h-118zM692 321q-7 0 -12.5 -5t-5.5 -13v-341q0 -8 5.5 -13t12.5 -5h117q7 0 12.5 5t5.5 13v341q0 8 -5.5 13t-12.5 5h-117z" />
    <glyph glyph-name="uniE636" unicode="&#xe636;" 
d="M869 503l-174 189q-8 8 -19 8h-285q-12 0 -23.5 -3.5t-20.5 -10.5t-16 -16.5t-11 -21t-4 -23.5v-34h54v34q0 5 1.5 9t4.5 6.5t7 4.5t8 2h262v-183q0 -5 4 -8.5t9 -3.5h157v-404q0 -9 -6.5 -15.5t-15.5 -6.5h-67v-53h67q31 0 53 22t22 53v437q0 11 -7 18zM678 631
l143 -154h-143v154zM527 554q-8 9 -20 9h-284q-21 0 -38 -10t-27 -27.5t-10 -37.5v-578q0 -20 10 -37.5t27 -27.5t38 -10h410q20 0 37.5 10t27.5 27.5t10 37.5v438q0 10 -7 18zM643 349h-120v130zM633 -111h-410q-9 0 -15.5 6t-6.5 15v578q0 4 2 8t4.5 7t6.5 4.5t9 1.5h272
l3 -3v-169q0 -6 3.5 -9.5t8.5 -3.5h144v-414q0 -9 -6 -15t-15 -6zM565 17h-293q-9 0 -9 -9.5t9 -9.5h293q10 0 10 10q-2 8 -10 9zM565 97h-293q-9 0 -9 -9.5t9 -9.5h293q10 0 10 9.5t-10 9.5zM565 177h-293q-4 0 -6.5 -3t-2.5 -7t2.5 -6.5t6.5 -2.5h293q10 0 10 9.5t-10 9.5
zM272 236h134q10 0 10 9q0 4 -3 7t-7 3h-134q-9 0 -9 -10q0 -2 1 -4.5t3.5 -3.5t4.5 -1zM306 394q0 -6 7 -6q1 -14 10.5 -25t22 -11t22 11t10.5 25q7 0 7 6q-1 5 -4 7q2 6 2 12q0 17 -11 28.5t-26 11.5q-11 0 -19.5 -5t-13.5 -14.5t-5 -20.5q0 -6 2 -12q-4 -2 -4 -7z
M266 288h159q3 2 4 3v13q0 1 -1 2q-8 8 -16.5 14t-18 10t-19.5 7h-2h-2h-2q-9 -5 -22.5 -5t-22.5 5h-2h-1h-1q-32 -7 -55 -31h-1v-2v-13q0 -3 3 -3z" />
    <glyph glyph-name="uniE637" unicode="&#xe637;" 
d="M653 333q-9 6 -20.5 4.5t-18.5 -9.5l-133 -165l-44 49q-7 8 -18.5 9t-20.5 -6t-10 -18.5t7 -19.5l66 -74q4 -5 9.5 -7t11.5 -2h1q13 0 21 10l154 191q7 9 5.5 20t-10.5 18zM792 623h-95q7 -8 12 -17t8 -19t3 -21h43v-626h-488v626h43q2 32 23 57h-95q-7 0 -14 -4
t-10.5 -10.5t-3.5 -13.5v-683q0 -8 3.5 -14.5t10.5 -10.5t14 -4h546q7 0 14 4t10.5 10.5t3.5 14.5v683q0 11 -8.5 19.5t-19.5 8.5zM415 492h208q17 0 31.5 8.5t23.5 23.5t9 32v4q0 3 -1 6q-2 22 -17.5 38t-37.5 19l-8 1h-28v5q0 26 -19 45t-45 19h-24q-17 0 -32 -8.5
t-23.5 -23.5t-8.5 -32v-5h-28q-3 0 -8 -1q-22 -3 -37.5 -19t-17.5 -38l-1 -6v-4q0 -26 19 -45t45 -19zM386 560v6q2 7 6 12t10 8t13 3h45q5 0 9 2.5t6 6.5t2 9v22q0 12 9 21t21 9h24q8 0 15 -4t11 -11t4 -15v-22q0 -5 2 -9t6 -6.5t9 -2.5h45q4 0 8 -1t7.5 -3t6 -5t4.5 -6.5
t3 -7.5v-6v-4q0 -12 -8.5 -21t-20.5 -9h-208q-12 0 -20.5 9t-8.5 21v4zM511 609q2 -2 4 -2.5t4 -0.5l8 3q5 4 5 11v3q-1 4 -4.5 7t-8.5 3t-8.5 -3t-4.5 -7v-3q0 -7 5 -11z" />
    <glyph glyph-name="uniE638" unicode="&#xe638;" 
d="M955 208q-4 6 -11 7l-43 6l-8 43q-2 7 -7.5 10.5t-11.5 2.5l-159 -29l-124 18q-6 1 -11.5 -3t-6.5 -11l-5 -31l-68 -13q-4 0 -6.5 -2t-4.5 -5q-4 -5 -2 -12l49 -267q0 -3 2 -6t5 -5l4 -2q2 -1 5 -1q1 0 3 1l218 40l130 -19h1h1q14 0 16 14l5 33l3 1q6 1 10 6.5t3 12.5
l-7 39l23 160q1 7 -3 12zM864 242l2 -16l-50 7zM544 55l-22 124l41 8zM565 -56l-7 36l114 -16zM916 136l-14 -101l-5 -30l-5 -34l-1 -6l-320 46l26 182l5 34l1 4l320 -46zM670 117q6 -1 12.5 0.5t11 5t8 9t4.5 11.5q1 9 -2 16.5t-10 13t-15 6.5q-13 2 -23.5 -6t-11.5 -21
q-2 -8 1.5 -16t10 -13t14.5 -6zM853 95l-29 -31l-38 74l-71 -82l-35 10q-66 9 -84 -37l277 -40l-2 11zM355 96q0 31 -22 53t-53 22t-53 -22t-22 -53v-21h-89v545h638v-328h51v354q0 11 -7.5 18.5t-17.5 7.5h-690q-7 0 -13 -3.5t-9.5 -9.5t-3.5 -13v-596q0 -7 3.5 -13
t9.5 -9.5t13 -3.5h141q11 0 18.5 7.5t7.5 18.5v46q0 7 3 12t8.5 8.5t11.5 3.5q10 0 17 -7t7 -17v-46q0 -11 7.5 -18.5t17.5 -7.5h157v51h-131v21zM247 432q0 -5 3 -8t8 -3q2 -24 18 -43t38 -19t38 19t18 43q11 0 11 11q0 8 -6 11q3 11 3 22q0 14 -5 26.5t-13.5 21.5
t-20.5 14.5t-25 5.5q-27 0 -45.5 -20t-18.5 -48q0 -11 3 -22q-6 -3 -6 -11zM171 277v-21q0 -6 6 -6h274q6 0 6 6v21q0 3 -2 4q-40 39 -93 52q-1 1 -3 1h-3h-2l-1 -1q-16 -8 -39 -8t-39 8q-2 1 -3 1h-2h-1h-1q-26 -6 -50.5 -19.5t-44.5 -33.5q-2 -1 -2 -4zM497 339h191
q3 0 5.5 1t3.5 3.5t1 5.5t-1 5t-3.5 3.5t-5.5 1.5h-191q-5 0 -8 -3t-3 -7q0 -10 11 -10zM497 441q-11 0 -11 -10.5t11 -10.5h191q10 0 10 10q0 3 -1 5.5t-3.5 4t-5.5 1.5h-191z" />
    <glyph glyph-name="uniE639" unicode="&#xe639;" 
d="M231 12q0 -25 18 -43.5t44 -18.5t44.5 18.5t18.5 43.5v0q0 26 -18.5 44.5t-44.5 18.5t-44 -18.5t-18 -44.5zM431 734h-275q-14 0 -24.5 -10t-10.5 -24v-825q0 -14 10.5 -24t24.5 -10h275q14 0 24 10t10 24v825q0 9 -4.5 17t-12.5 12.5t-17 4.5zM225 631h137v-343h-137
v343zM293 -94q-29 0 -53.5 14t-38.5 38.5t-14 53.5q0 45 31 76t75 31t75.5 -31t31.5 -75.5t-31.5 -75.5t-75.5 -31zM712 86q-24 -4 -39.5 -23.5t-12 -44.5t23 -40t44.5 -12t40 23t12 44.5t-23 40t-45 12.5zM902 -84l-104 790q-2 14 -13 22.5t-25 6.5l-263 -35
q-14 -2 -22.5 -13t-6.5 -24l105 -791q2 -13 13 -21.5t24 -6.5l264 35q13 1 21.5 12t6.5 25zM576 610l131 17l44 -329l-132 -17zM734 -76q-43 -6 -76.5 20t-39.5 68.5t20 76t68.5 39.5t76.5 -20t39.5 -68.5t-20.5 -76.5t-68 -39z" />
    <glyph glyph-name="uniE63A" unicode="&#xe63a;" 
d="M684 481q-16 -9 -21.5 -27t3.5 -34q6 -11 16.5 -17t22 -6.5t23.5 5.5q16 9 21 27t-4 34q-5 11 -15.5 17.5t-22 6.5t-23.5 -6zM223 368l2 4l402 221l31 -9q2 -9 3 -9q8 -16 26 -21.5t35 3.5q0 1 6 6l31 -9l70 -128l-9 -31q-1 0 -2 -1h-4q-1 -1 -2 -1q-15 -8 -21 -25h134
l-190 347l-671 -367l79 -145v113q0 21 15 36.5t37 15.5h28zM527 390q-5 -1 -8 -1.5t-9 -3t-11 -5.5q-3 -2 -5 -4t-3.5 -4t-1.5 -4h149q-4 18 -11 31q-23 43 -75 54t-101 -16q-9 -5 -17.5 -11t-15 -12.5t-12.5 -14t-11 -15.5t-9 -16h73q3 13 14 24l-11 15q-1 3 1 4l15 10
q3 2 4 -1l10 -14q13 7 28 9l3 -2l6 -20q1 -1 0 -2zM803 135q-9 0 -17.5 -3.5t-14.5 -9.5t-9.5 -14.5t-3.5 -17.5q0 -19 13 -32t32 -13q9 0 17.5 3.5t14.5 9.5t9.5 14.5t3.5 17.5q0 18 -13 31.5t-32 13.5zM351 135q-30 0 -42 -28q-3 -8 -3 -17q0 -19 13.5 -32t32 -13t31.5 13
t13 32q0 6 -1.5 12t-4.5 10.5t-7 9t-9 7.5t-11 4.5t-12 1.5zM751 316h-556v-452h765v452h-209zM904 17l-23 -23q-1 0 -3 1q-3 1 -5 1q-19 0 -32 -13.5t-13 -31.5v-3q0 -2 0.5 -3.5t0.5 -2.5l-22 -23h-459l-23 23q0 1 1 3q1 4 1 6q0 18 -13.5 31.5t-31.5 13.5h-4l-2 -2h-3
l-23 23v146l23 22l3 -1h6q18 0 31.5 13t13.5 32q0 1 -1 3v2q-1 2 -1 3l23 23h459l22 -23l-1 -3v-5q0 -19 13 -32t32 -13h3q1 0 2.5 0.5t2.5 0.5l23 -22v-146zM577 208q-56 0 -96 -34.5t-40 -83.5t40 -84t96 -35q22 0 43 6t38 17t29.5 25.5t19.5 32.5t7 38q0 12 -3 23.5
t-8 22t-12.5 20.5t-16.5 18t-20.5 14.5t-23.5 11t-25.5 6.5t-27.5 2zM589 20v-21l-3 -3h-18q-2 0 -2.5 1t-0.5 2v19q-4 0 -8 0.5t-7 1.5l-8 2q-3 1 -6 2.5t-6 3.5q-2 1 -1 3l6 21q0 1 0.5 1.5t1.5 0.5h2q6 -4 14.5 -7t18.5 -3t15.5 4t5.5 11q0 11 -22 20q-41 14 -41 42
q0 15 10 26t26 14v19q0 1 1 2t2 1h18q3 0 3 -3v-17q15 -1 29 -8q2 -1 1 -3l-6 -21q0 -1 -1 -1.5t-3 -0.5q-2 2 -3.5 2.5t-4.5 2t-6 2t-6.5 1t-7.5 0.5q-19 0 -19 -13q0 -9 26 -19q37 -14 37 -44q0 -15 -10 -26.5t-27 -14.5z" />
    <glyph glyph-name="uniE63B" unicode="&#xe63b;" 
d="M907 -57h-791q-35 0 -59.5 26t-24.5 63v512q0 37 24.5 63.5t59.5 26.5h791q35 0 59.5 -26.5t24.5 -63.5v-512q0 -24 -11 -44.5t-30.5 -32.5t-42.5 -12zM116 571q-4 0 -7.5 -2.5t-6.5 -6t-4.5 -8.5t-1.5 -10v-512q0 -5 1.5 -10t4.5 -8.5t6.5 -5.5t7.5 -2h791q9 0 15 8
t6 18v512q0 11 -6 19t-15 8h-791zM512 257q-5 0 -10 1t-9 4l-412 289q-11 8 -13 21t5.5 23.5t20.5 13t23 -5.5l413 -289q11 -8 13 -20.5t-5 -23.5q-10 -13 -26 -13zM512 257q-3 0 -6 0.5t-6 1.5t-5.5 2.5t-4.5 3.5t-4 5q-2 2 -3 4.5t-1.5 4.5t-1 4.5t-0.5 5t0.5 5t1 4.5
t2 4.5t2.5 4.5t3 4t4 3l410 287q11 7 24 5t20.5 -12.5t5 -23.5t-12.5 -21l-410 -287q-9 -5 -18 -5zM99 -34q-13 0 -22.5 9t-9.5 22.5t10 22.5l331 338q3 3 7 5t7.5 3t8 1t8.5 -1t7.5 -3t6.5 -5q4 -4 6 -8.5t3 -9.5t0 -10t-3 -9.5t-6 -7.5l-331 -338q-10 -9 -23 -9zM930 -40
q-13 0 -22 9l-332 338q-9 9 -9 22t9 23q5 4 11 6.5t12 2.5t11.5 -2.5t10.5 -6.5l332 -338q9 -9 9 -22t-9 -23q-10 -8 -23 -9z" />
    <glyph glyph-name="uniE63C" unicode="&#xe63c;" 
d="M518 192l42 -41l-27 -27q-1 -1 -2 -2.5t-3 -6.5t-2.5 -10t3 -13t10.5 -15l211 -210q2 -2 6 -4t15.5 -4.5t21.5 5.5l105 103q2 3 4.5 7.5t1.5 17.5t-12 23l-209 207h-1l-2 2q-2 2 -4 3l-5 3l-6 2t-6.5 1t-7.5 -0.5t-8 -2.5t-8 -5l-28 -28l-44 44zM489 313l-227 223v69
l-133 79l-66 -64l80 -128l71 -1l224 -220zM124 -63q0 4 1 9.5t9.5 15t24.5 9.5q4 0 9.5 -1t14.5 -9.5t10 -23.5q-1 -3 -2 -8.5t-9.5 -14.5t-23.5 -10l-30 -30q2 -1 5 -3.5t13.5 -7.5t21 -6.5t25 2.5t28.5 15l404 433q5 -3 14 -8t38 -13t58 -8q9 0 24.5 1t53.5 14t67 37
q1 1 4 3.5t10.5 10.5t15 17t16.5 23t15.5 29t11.5 34.5t5.5 39.5t-4 44t-14.5 49l-144 -140l-123 121l145 138l-11 5q-7 4 -29.5 9t-46 4.5t-59.5 -10.5t-70 -32q-3 -2 -7.5 -5.5t-16.5 -15.5t-22.5 -25.5t-21.5 -35t-16 -44.5q-1 -4 -2.5 -11t-3 -28t0.5 -42t12.5 -49
t28.5 -52l-454 -373l-3 -3q-2 -2 -6.5 -9t-6 -14.5t-3 -19t3.5 -22.5zM124 -63q2 -32 34 -33l-30 -30q-39 34 -43 52z" />
    <glyph glyph-name="uniE63D" unicode="&#xe63d;" 
d="M881 280l-483 520h-223l483 -520l-483 -484h223z" />
    <glyph glyph-name="uniE63E" unicode="&#xe63e;" 
d="M897 -85q0 -27 -18.5 -45.5t-45.5 -18.5h-640q-27 0 -45.5 18.5t-18.5 45.5v768q0 27 18.5 45.5t45.5 18.5h383v-255q0 -27 19 -45.5t45 -18.5l257 -1v-512zM863 509l3 -3l-1 1q5 -7 2.5 -11.5t-10.5 -4.5h-186q-12 0 -21 9t-9 21v186q0 5 2 8t6 3t8 -3l-1 1l3 -3z" />
    <glyph glyph-name="uniE63F" unicode="&#xe63f;" 
d="M770 41q0 -107 -76 -183.5t-184 -76.5t-184 76.5t-76 183.5q0 97 62.5 169.5t156.5 87.5v468q0 12 8 20t19.5 8t19.5 -8t8 -20v-55h136q4 0 7.5 -1t6.5 -2.5t5.5 -4t4.5 -5.5t3 -6.5t1 -7.5q0 -7 -4 -13.5t-10 -10t-14 -3.5h-136v-82h136q5 0 9 -1.5t7.5 -4t6 -6t4 -7.5
t1.5 -9q0 -11 -8 -19t-20 -8h-136v-220q103 -5 174.5 -80t71.5 -179zM305 41q0 -85 60 -145t145 -60t145 60t60 145t-60 145t-145 60t-145 -60t-60 -145z" />
    <glyph glyph-name="uniE640" unicode="&#xe640;" horiz-adv-x="1025" 
d="M927 -21q5 -22 -2.5 -41.5t-24 -34t-39.5 -23t-50 -8.5q-170 -1 -305 -1h-306q-32 0 -56.5 11.5t-39.5 28.5t-20 37.5t1 36.5q6 13 11 26q5 12 11 26.5t13 30.5l35 83h102l-39 -114h580l-39 114h98q19 -46 35 -83q6 -16 12.5 -31.5t11 -27.5t8 -20.5t3.5 -9.5zM474 145
q-17 20 -39 49.5t-45.5 61t-46.5 62.5t-41 53q-21 24 -16.5 40t31.5 16q14 -1 38.5 0.5t40.5 1.5q18 0 22.5 10.5t4.5 28.5q0 20 -0.5 44t-0.5 49t-0.5 49.5t-0.5 44.5q0 9 1.5 19t6.5 18t14 13.5t26 5.5q19 0 34.5 0.5t36.5 0.5q29 0 39.5 -14t11.5 -44v-35
q0 -21 0.5 -44.5t0.5 -46.5v-43q0 -26 5.5 -41.5t24.5 -14.5q13 0 32.5 -1t33.5 -1q25 0 31.5 -13t-9.5 -34q-17 -22 -39.5 -52.5t-46.5 -63t-47 -64t-41 -53.5q-16 -21 -31 -21.5t-31 19.5z" />
    <glyph glyph-name="uniE641" unicode="&#xe641;" 
d="M544 -39v391h-64v-391l-90 90l-45 -46l167 -167l167 167l-45 46zM767 512q-12 96 -84.5 161t-170.5 65t-170.5 -65t-84.5 -161q-23 -1 -45 -7.5t-41.5 -17.5t-36 -25t-30 -32t-23 -37.5t-14.5 -42.5t-5 -46q0 -86 61 -147.5t148 -61.5h112v64h-112q-60 0 -102.5 42.5
t-42.5 102.5q0 57 39 98.5t96 45.5l53 4l7 53q9 72 63.5 120.5t127.5 48.5t127.5 -48.5t63.5 -120.5l7 -53l53 -4q57 -4 96 -45.5t39 -98.5q0 -60 -42.5 -102.5t-102.5 -42.5h-112v-64h112q87 0 148 61.5t61 147.5q0 83 -56.5 143t-138.5 65z" />
    <glyph glyph-name="uniE642" unicode="&#xe642;" horiz-adv-x="1025" 
d="M651 230l21 21l-144 144l-145 -144l22 -22l108 109v-438h30v437zM798 438v3l1 4q0 96 -68.5 164t-164.5 68q-45 0 -86.5 -16.5t-73 -46.5t-50.5 -69q-25 13 -53 13q-44 0 -77.5 -28.5t-40.5 -71.5q-36 -12 -63.5 -37t-43 -59.5t-15.5 -73.5q0 -75 52.5 -127.5
t127.5 -52.5h180v30h-180q-62 0 -106 44t-44 106q0 48 28 87t73 55l17 5l3 18q6 33 31 54t58 21q21 0 40 -10l27 -14l14 28q16 35 44 61t64 40t74 14q84 0 143.5 -59t59.5 -143q0 -1 -1 -2v-4v-31h30q56 0 95.5 -40t39.5 -95.5t-39.5 -95t-95.5 -39.5h-6h-159v-30h166
q68 0 116 48.5t48 116.5t-48.5 116.5t-116.5 48.5z" />
    <glyph glyph-name="uniE643" unicode="&#xe643;" 
d="M64 749h445v-897h-445v897zM116 527h114v113h-17h-17h-17h-17h-17q-9 0 -17 -1q-3 0 -7 -5t-4 -9q-1 -16 -1 -98zM344 525h99q2 1 5.5 3.5t5.5 6t3 6.5q2 44 -1 82q0 4 -5.5 10t-9.5 6q-15 1 -97 1v-115zM232 76q0 81 -1 95q0 2 -1.5 4.5t-3.5 4.5t-4.5 3.5t-4.5 3
t-4 1.5q-34 2 -79 0q-5 0 -11 -4.5t-6 -7.5q-1 -18 -1 -100h116zM345 189v-112h112q0 80 -1 95q0 1 -1 3.5t-2.5 4.5t-4 4t-4.5 3t-4 1q-14 1 -95 1zM230 414q-83 0 -102 -1q-3 0 -7 -4.5t-4 -7.5q-1 -18 -1 -99h114v38v34v40zM457 414h-25h-27h-23q-13 0 -25 -1
q-3 0 -8 -3.5t-5 -5.5q-1 -21 -1 -104q82 0 95 1q5 0 11.5 5.5t6.5 10.5q1 14 1 97zM679 74v-222h-106v500h387v-500h-107v222h-174zM571 416v50h389v-50h-389z" />
    <glyph glyph-name="uniE644" unicode="&#xe644;" 
d="M139 748h2h4h511q6 0 10 -4l35 -35l35 -35l35 -35l36 -36q1 -1 2 -3t1 -4v-290v-5h-76v223h-148v148h-371v-743h222v-75h-298v894zM436 2h194h29v-75q156 104 226 150q-89 60 -225 150v-74l-5 -1h-217h-1h-1v-150z" />
    <glyph glyph-name="uniE645" unicode="&#xe645;" 
d="M139 153h223v-149h-223v149zM362 227l223 -149l-223 -149v298zM361 749l-148 -148v-299h74v223h149v149h373v-745h-224v-74h224h74v74v820h-522zM361 749z" />
    <glyph glyph-name="uniE646" unicode="&#xe646;" 
d="M769.5 518q-27.5 0 -47.5 -20t-20 -48t20 -47.5t47.5 -19.5t47.5 19.5t20 47.5t-20 48t-47.5 20zM5 694v-811h1014v811h-1014zM768 279l-151 -152l-337 338l-241 -241v436h946v-597z" />
    <glyph glyph-name="uniE647" unicode="&#xe647;" 
d="M861 555q4 -8 6 -18q1 -4 1.5 -7.5t0.5 -7.5v-8q0 -6 -1 -11.5t-3 -11.5q-4 -12 -14 -22q-11 -11 -20 -19l-7 -8l-7 -6q-7 -8 -14 -13l-167 167q11 10 26 24q14 14 24 22q4 3 8.5 5.5t9 4.5t8.5 4q14 4 27 3.5t25 -4t21 -8.5q18 -10 41 -34.5t35 -51.5zM165 119
q6 6 25.5 26t49.5 49l65 66l72 72l192 192l167 -168l-192 -192l-71 -72q-36 -35 -64.5 -64t-47.5 -48t-22 -21q-9 -8 -20.5 -17t-24.5 -15l-5 -3q-3 -1 -6.5 -2.5t-7.5 -3t-8.5 -3t-9.5 -3.5q-24 -9 -50 -17q-13 -5 -25.5 -8.5t-24.5 -6.5q-24 -6 -35 -8q-25 -3 -33 7t-4 33
q2 13 8.5 36.5t14 49t15 47t11.5 29.5q5 12 12 22.5t19 22.5zM165 119zM463 -49h80v-80h-80v80zM626 -49h80v-80h-80v80zM789 -49h80v-80h-80v80z" />
    <glyph glyph-name="uniE648" unicode="&#xe648;" horiz-adv-x="1082" 
d="M298 643q-81 1 -137.5 -44t-76.5 -115q-12 -46 -9 -92t27.5 -93t66.5 -82q27 -22 84 -70q80 -67 287 -236q91 82 284 248q18 15 41.5 34t29.5 24q46 40 72.5 88.5t32.5 95t-7 91t-42 78t-75.5 53.5t-103.5 20q-16 0 -33 -2.5t-31.5 -6.5t-30.5 -9q-102 -38 -137 -130
q-31 94 -139 131q-51 17 -103 17z" />
    <glyph glyph-name="uniE649" unicode="&#xe649;" 
d="M512 -93q-7 0 -12 5l-291 295q-33 33 -55.5 69.5t-34.5 74.5t-12 76q0 92 56 149t148 57q37 0 66 -7.5t54 -25t40 -33t41 -45.5q26 30 41 45.5t40 33t53.5 25t66.5 7.5q92 0 148 -57t56 -149q0 -118 -102 -220l-291 -295q-2 -2 -5.5 -3.5t-6.5 -1.5zM311 598
q-31 0 -57.5 -8t-46.5 -22.5t-35 -35.5t-22.5 -47.5t-7.5 -57.5q0 -104 92 -195l278 -283l278 282q92 92 92 196q0 78 -46 124.5t-123 46.5q-26 0 -48 -5t-37 -12t-33 -22.5t-28.5 -27t-31.5 -36.5l-10 -12q-5 -6 -13 -6q-3 0 -5 1t-4.5 2t-3.5 3l-10 12q-21 25 -31.5 36
t-28.5 27t-33 23t-37 12t-48 5z" />
    <glyph glyph-name="uniE64A" unicode="&#xe64a;" 
d="M816 134q40 -55 91 -72q-23 -68 -71 -142q-73 -111 -145 -111q-27 0 -80 18q-49 18 -85.5 18t-80.5 -19q-46 -18 -76 -18q-86 0 -170 147q-83 145 -83 285q0 130 63 212q65 83 161 83q21 0 47 -5.5t54 -19.5q30 -17 49 -23t30 -6q12 0 38 5.5t52 21.5q28 15 48 23t41 8
q67 0 121 -37q29 -19 59 -57q-44 -38 -65 -67q-37 -54 -37 -117q0 -70 39 -127zM623 583q-33 -32 -61 -42q-10 -2 -24.5 -4.5t-34.5 -4.5q1 84 44.5 145.5t142.5 84.5q2 -9 2 -13v-11q0 -34 -16 -78q-17 -42 -53 -77z" />
    <glyph glyph-name="uniE64B" unicode="&#xe64b;" 
d="M913 275q43 -50 1 -96l-297 -299q-10 -7 -21 -10.5t-22.5 -2.5t-21.5 5t-17 10q-107 108 -192 193l-71 72q-36 35 -63 63t-45 45l-18 18q-2 2 -6 8.5t-9 16.5t-9 22.5t-4 26.5v17q0 14 0.5 34t1 44t0.5 49q1 59 2 130q2 11 4.5 22.5t12.5 22.5q9 9 21 12.5t22 3.5h292
q2 1 13.5 0.5t13.5 -2.5q6 -2 13.5 -6.5t11.5 -9.5zM259 486q25 0 42 17.5t17 42.5t-17 42t-42 17t-43 -17t-18 -42t18 -42.5t43 -17.5z" />
    <glyph glyph-name="uniE64C" unicode="&#xe64c;" 
d="M856 589q41 -1 61 -22.5t20 -56.5v-40q0 -34 -0.5 -82.5t-0.5 -104.5t-0.5 -105t-0.5 -85v-42q0 -31 -17.5 -51.5t-43.5 -20.5h-736q-30 1 -53 22.5t-23 56.5v451q0 15 5 29.5t15 26t24.5 18.5t33.5 7h481q62 0 111.5 -0.5t82.5 -0.5h41zM814 499h-651l1 -424l649 1z
M877.5 321q-14.5 0 -25 -10.5t-10.5 -24.5t10.5 -24t25 -10t25 10t10.5 24t-10.5 24.5t-25 10.5z" />
    <glyph glyph-name="uniE64D" unicode="&#xe64d;" 
d="M639 -126q-85 -28 -170.5 -20.5t-159 45t-130.5 101t-84.5 148.5t-20 170t45 159.5t101.5 131t149 84.5t170 20t159 -45.5t130.5 -101.5t84.5 -148.5t20 -170t-45 -159t-101 -130.5t-149 -84zM836 393.5q-23 68.5 -68.5 120.5t-105 82t-129 36.5t-138 -16.5t-120.5 -69
t-82 -105.5t-36.5 -128.5t16.5 -137.5t68.5 -120.5t105.5 -82t129 -36t138 17t120.5 68.5t81.5 105t36.5 128.5t-16.5 137.5zM602.5 -16q-61.5 -20 -123.5 -14.5t-116.5 32.5t-96 73.5t-61.5 108.5t-14.5 124.5t32.5 117t74 95.5t109 61t124 14.5t116.5 -32.5t96 -74
t61.5 -108.5t14.5 -124t-32.5 -116.5t-74.5 -95.5t-109 -61.5zM504.5 341q-24.5 0 -41.5 -16.5t-17 -41t17 -42t41.5 -17.5t41.5 17.5t17 42t-17 41t-41.5 16.5zM283 437l136 -78q4 2 9 6q5 3 9 7t9 7q12 6 22 9q6 2 12 3v156q-17 -1 -34 -5q-15 -3 -34 -9.5t-41 -18.5
q-25 -14 -41.5 -28t-27.5 -25q-11 -12 -19 -24zM260 171l136 78q-2 6 -3 11t-1.5 11t-0.5 11q0 14 3 24q1 6 3 12l-135 78q-6 -14 -12 -31q-5 -14 -9 -34.5t-4 -45.5q-1 -28 2.5 -49.5t8.5 -36.5q5 -17 12 -28zM479 17l1 158q-6 1 -12 3q-10 3 -20 10q-6 3 -10.5 7t-8.5 7.5
t-8 7.5l-135 -77q9 -14 20 -27q11 -11 26 -24.5t37 -26.5q24 -15 44.5 -22.5t34.5 -11.5q17 -4 31 -4zM724 128l-135 78q-5 -4 -8 -7q-4 -3 -9 -6.5t-10 -6.5q-5 -4 -11.5 -6t-10.5 -3q-6 -2 -11 -3v-157q15 1 33 5q15 3 34.5 9.5t41.5 19.5q25 13 41 27t26 25q12 13 19 25z
M748 396l-135 -78l2 -12q1 -5 1.5 -11t0.5 -11q0 -6 -1 -13t-2 -12q-2 -5 -3 -11l134 -77q7 13 13 30q5 15 9 35.5t4 44.5q0 28 -3.5 50t-7.5 36q-5 17 -12 29zM530 549v-157l12 -4q4 -2 9.5 -4.5t10.5 -4.5q4 -4 9.5 -7.5t9.5 -7.5l8 -8l135 78q-9 12 -20 26q-11 11 -26 25
t-37 27q-25 14 -45.5 21.5t-34.5 10.5q-18 4 -31 5z" />
    <glyph glyph-name="uniE64E" unicode="&#xe64e;" 
d="M683 680q18 32 29 47t17.5 20t17 2t16.5 -15.5t5 -34.5t-7 -63q-3 -20 -14 -46t-24.5 -51t-26.5 -46.5t-20 -32.5q-8 -11 -23 -32l-31 -41q-19 -23 -38 -49q11 -18 22 -35q10 -14 18.5 -28t13.5 -22q17 -26 48 -52t62 -41q15 -8 45 -17.5t58.5 -28.5t49.5 -52t18 -89
q-2 -45 -20.5 -77.5t-46 -52.5t-62 -27.5t-68 -3t-63 22t-47.5 47.5q-19 29 -25.5 57t-6.5 57t4.5 58.5t9.5 60.5q3 17 2.5 29t-3 20.5t-6.5 14.5l-8 13q-4 6 -12.5 17.5t-16.5 23.5q-10 13 -21 27l-17 -22q-8 -10 -16.5 -22.5t-17.5 -23.5q-17 -24 -18.5 -39t3.5 -35
q3 -10 7.5 -37t3 -62.5t-12 -74.5t-39.5 -74q-24 -29 -56 -43.5t-64 -15.5t-63.5 10t-56 31.5t-40 50.5t-16.5 66q-2 54 18.5 89t50.5 57.5t62 35.5t55 21q21 8 36 16t25.5 15.5t18 16t15.5 17.5t19 25l22 32q12 19 25 40q-8 11 -19 26q-9 12 -23 29t-30 37q-17 22 -34.5 51
t-32 57.5t-26 53.5t-15.5 36t-8 29t-5 35.5t2 32t12 21.5q9 5 16 4.5t12 -5t9.5 -12.5t11.5 -18q3 -5 13 -20t23.5 -36t30.5 -46l33 -52q39 -60 87 -135q36 62 67 114l27 45q13 22 25 41.5t20.5 34.5t13.5 23zM296 65q-38 0 -64 -26t-26 -63t26 -63.5t64 -26.5q37 0 63 26.5
t26 63.5t-26 63t-63 26zM752 65q-37 0 -63.5 -26t-26.5 -63q0 -19 7 -35.5t19.5 -28.5t28.5 -19t35 -7q37 0 63 26.5t26 63.5t-26 63t-63 26z" />
    <glyph glyph-name="uniE64F" unicode="&#xe64f;" 
d="M672 -75q0 -11 -7 -20.5t-19 -9.5l-244 1q-11 -1 -17.5 9.5t-6.5 19.5q0 8 6 18.5t18 10.5h76v64h-341q-34 0 -55 19t-21 52v509q0 33 20 49t53 16h756q33 0 52.5 -17.5t19.5 -47.5v-509q0 -32 -18 -50t-54 -18h-319v-68h74q11 0 19 -9t8 -19zM891 551h-768v-360h768v360
zM566 148h-87v-77h87v77z" />
    <glyph glyph-name="uniE650" unicode="&#xe650;" 
d="M678 220q0 -29 -11 -54t-29 -43.5t-43 -29t-53.5 -10.5t-53 10.5t-43 29t-29 43.5t-10.5 54q0 28 10.5 53t29 43.5t43 29t53 10.5t53.5 -10.5t43 -29t29 -43.5t11 -53zM171 -52q-29 0 -51.5 5t-37.5 17.5t-23.5 33t-8.5 52.5v346q0 58 27 80.5t86 22.5h172q16 0 27 6
t17.5 16.5t11.5 24t11 28.5q11 26 36.5 45.5t58.5 19.5h95q38 0 62 -21t32 -44q11 -31 29.5 -53t39.5 -22h130q45 1 71.5 -24.5t26.5 -75.5v-351q0 -52 -27.5 -79t-73.5 -27h-711zM540 434q-45 0 -84 -17t-68 -46t-45.5 -68t-16.5 -83q0 -45 16.5 -84t45.5 -67.5t68 -45.5
t84 -17q44 0 83 17t67.5 45.5t45.5 67.5t17 84q0 44 -17 83t-45.5 68t-67.5 46t-83 17zM611 545q0 16 -1.5 25.5t-20.5 9.5h-85q-20 1 -21.5 -8.5t-1.5 -26.5q-1 -20 2 -28t21 -8h85q19 0 20.5 9t1.5 27z" />
    <glyph glyph-name="uniE651" unicode="&#xe651;" 
d="M208 33q0 -40 -23 -59.5t-56 -19.5q-36 0 -58 19t-22 64v393q-1 33 22 52.5t58 19.5q37 0 58 -22t21 -52v-395zM265 -40l-1 538h129q17 0 28.5 8.5t20.5 22.5t15 30t12 30q10 25 25.5 42.5t47.5 17.5h107q19 0 31 -5t21 -14t15 -21t11 -24q6 -14 11.5 -29t12.5 -27.5
t15.5 -20.5t20.5 -8h86q53 -1 79.5 -29.5t26.5 -80.5v-326q0 -54 -25.5 -79t-74.5 -25h-614zM598 407q-40 0 -74.5 -15t-60 -40.5t-40 -60.5t-14.5 -74q0 -40 14.5 -74t40 -59.5t60 -40.5t74.5 -15q39 0 74 15t60.5 40.5t40 59.5t14.5 74q0 39 -14.5 74t-40 60.5t-60.5 40.5
t-74 15zM715 218.5q0 -24.5 -9.5 -45.5t-25 -37t-36.5 -25t-46 -9t-46.5 9t-37 25t-25 37t-9.5 45.5t9.5 45.5t25 37t37 25t46.5 9t46 -9t36.5 -25t25 -37t9.5 -45.5z" />
    <glyph glyph-name="uniE652" unicode="&#xe652;" 
d="M302 440q-26 -1 -51 -1h-80q-17 0 -35 -6t-31 -18t-22 -30.5t-9 -43.5v-73h876v39q0 16 -0.5 29.5t-0.5 17.5q0 12 -5 27.5t-16.5 28.5t-30 21.5t-47.5 8.5h-128v-93h-420v93zM949 216v-50q0 -22 0.5 -49.5t0.5 -55.5t-10 -46t-25 -29t-32 -15t-30 -4q-14 -1 -28.5 -0.5
t-28.5 0.5h-31l-43 123h-421l-42 -123h-61q-19 0 -43 1q-24 0 -39.5 9t-24.5 22t-13 28.5t-4 28.5v160h875zM188 156q-11 0 -19.5 -8.5t-8.5 -20.5t8.5 -20.5t19.5 -8.5q13 0 21.5 8.5t8.5 20.5t-8.5 20.5t-21.5 8.5zM335 37q-7 -25 -13 -46q-5 -19 -10 -36t-7 -24t-3 -14.5
t1 -13.5t9 -10t20 -4h351q22 0 32.5 11.5t1.5 36.5q-4 12 -8.5 29t-9.5 33l-10 38h-354zM355 397v219q0 10 2 21.5t9.5 20.5t20 15t32.5 6h180q30 0 49.5 -14t19.5 -50v-218h-313z" />
    <glyph glyph-name="uniE653" unicode="&#xe653;" horiz-adv-x="1027" 
d="M702 511q54 0 101.5 -20.5t83 -56t56.5 -83t21 -102.5q0 -68 -31 -125t-83 -92q-8 27 -26 51q2 2 3 2.5t2 2.5q7 10 7.5 16t-13 9.5t-19.5 4t-12 -7.5q-7 5 -16 9t-17 8q2 2 3 6t-1 15q-1 13 4 18.5t8 9.5q2 2 -1 5.5t-7.5 7.5t-8 8.5t-3.5 9.5q6 17 -3 18t-33 1
q-11 0 -17 -1.5t-16 0.5q-8 1 -12 2.5t-8 4t-9.5 4t-16.5 1.5q-15 1 -21.5 2t-9 2t-4.5 1.5t-7 0.5q-1 0 -2 -0.5t-2 -0.5q15 20 27.5 39.5t22.5 37.5q4 -4 8 -4h12q7 0 14.5 -1.5t16.5 -7.5q14 -3 25 -7q10 -3 21.5 -7t18.5 -8q8 -5 6.5 -13.5t-5.5 -17t-6.5 -16t3.5 -11.5
q8 -7 12 -8t8.5 -1t12.5 2t24 2q-5 0 -1 3l8 9q5 5 12 10t11.5 8.5t14 6t19 5.5t16.5 8.5t8 15.5q1 20 -4 35.5t-20 38.5q-8 13 -14 21t-12.5 14.5t-12.5 11t-15 9.5l-18 11q-9 5 -19 7t-22 -2t-27 -19q-3 -4 -9 -10t-13 -11.5t-13 -9t-11 -3.5q-3 0 -9 -0.5t-13 -2.5
q16 46 14 78t-12 56h15h16zM600 137q22 -9 48.5 -16t51 -16.5t43.5 -23.5t27 -37q4 -14 6.5 -34.5t2.5 -42t-3 -40.5t-10 -28q-4 -6 -25 -13.5t-51.5 -14t-68 -12.5t-75 -10.5t-72.5 -6.5t-61 -2t-60 2.5t-69 6.5t-69.5 9.5t-63 11t-48 11t-25.5 9.5q-9 7 -14 44t3 95
q6 32 27.5 48.5t50.5 27t60 18.5t55 23q18 12 28 22.5t14 21t4 22.5t-1 25q-2 21 -14 32.5t-26 24.5q-7 6 -13 17t-10 22q-5 13 -9 28q-6 2 -13 7q-5 4 -11 12t-10.5 23.5t-3 28t4.5 21.5q4 10 11 19q0 34 4 67q3 29 12 61t28 58q17 24 38 40t42.5 25t43.5 12t42 3
q26 0 49.5 -6t44 -15.5t36.5 -22.5t26 -25q23 -29 34 -62.5t16 -64.5q5 -36 4 -71q6 -5 9 -12q4 -6 6 -16t0 -24q-1 -19 -7.5 -30.5t-12.5 -17.5q-8 -7 -16 -10q-5 -15 -9 -28q-5 -10 -11 -21.5t-13 -16.5q-8 -7 -14.5 -12t-12 -11t-9 -13t-5.5 -18q-3 -14 -2.5 -28
t7.5 -27.5t20.5 -26.5t38.5 -23v1zM482 -54q0 5 -3 20.5t-6 33t-6.5 33.5t-5.5 23q10 9 21 27q2 6 -2.5 13t-12.5 14t-18 15h-44q-10 -8 -18 -15q-6 -7 -10.5 -14t-1.5 -12q9 -17 16 -26q-2 -5 -5.5 -20t-8 -32.5t-7.5 -33.5t-3 -24q0 -5 7.5 -13.5t18 -16.5t20.5 -14.5
t14.5 -6.5t13.5 6t18 14t16 16t7 13z" />
    <glyph glyph-name="uniE654" unicode="&#xe654;" 
d="M802 320q32 0 60.5 -12t50 -33.5t33.5 -50t12 -60.5q0 -33 -12 -61t-33.5 -49.5t-50 -34t-60.5 -12.5q-30 0 -56 11t-47 28v-128q0 -28 -19.5 -47.5t-46.5 -19.5h-505q-28 0 -48 19.5t-20 47.5v114q6 21 19 31.5t39 -5.5q12 -7 18 -8q27 -13 54.5 -13t51.5 10t42 28
t28.5 41.5t10.5 51.5t-10.5 52t-28.5 42t-42 28t-52 10q-26 0 -52 -11q-6 -2 -10 -4q-12 -7 -24 -12t-21 -4t-15.5 10.5t-7.5 30.5v108q0 27 20 47t48 20h160q-17 21 -26.5 46t-9.5 54q0 33 13 62.5t34.5 51t50.5 34t61.5 12.5t62 -12.5t51 -34t34 -51t12.5 -62.5
q0 -58 -35 -100h97q27 0 46.5 -20t19.5 -47v-136q21 17 47 27.5t56 10.5z" />
    <glyph glyph-name="uniE655" unicode="&#xe655;" 
d="M617 516q0 -53 -19 -100.5t-50.5 -83t-73.5 -56t-88 -20.5t-87.5 19.5t-73.5 55t-51 84.5t-19 107q0 47 18.5 88.5t49.5 72.5t72.5 50t87.5 19t88 -19.5t74.5 -52.5t52 -75.5t19.5 -88.5zM345 185l-1 -363l38 48l39 -48v363h-76zM590 703q21 -26 39 -55q14 -25 26 -58
t11 -69q-1 -62 -12.5 -104t-25.5 -68q-18 -30 -38 -48q29 3 59 10q26 5 55.5 13.5t56.5 21.5q23 13 44 33t36 47.5t21 62.5t0 77q-6 43 -35.5 76.5t-70.5 53.5t-86 23t-80 -16zM591 244l-1 -346l35 46l38 -46v346h-72z" />
    <glyph glyph-name="uniE656" unicode="&#xe656;" 
d="M512 737q93 0 174.5 -35.5t142.5 -96t96.5 -142.5t35.5 -174q0 -93 -35.5 -174.5t-96.5 -142.5t-142.5 -96t-174.5 -35q-92 0 -174 35t-142.5 96t-95.5 142.5t-35 174.5q0 92 35 174t95.5 142.5t142.5 96t174 35.5zM675 514q-30 0 -51 -24.5t-21 -60.5q0 -35 21 -59.5
t51 -24.5t50 24.5t20 59.5q0 36 -20 60.5t-50 24.5zM343 512q-29 0 -49.5 -24.5t-20.5 -59.5q0 -36 20.5 -60.5t49.5 -24.5t49 24.5t20 60.5q0 35 -20 59.5t-49 24.5zM766 161q1 2 1 7t-1.5 11.5t-6 11.5t-13.5 8q-23 -29 -58 -51q-30 -20 -75.5 -35.5t-107 -15.5
t-104.5 15.5t-72 35.5q-34 22 -58 51q-8 -2 -12 -7t-6 -11.5t-2 -11.5t1 -8q1 -1 0.5 -1.5t0.5 -1.5q9 -28 32.5 -52t57.5 -42t76.5 -27.5t89.5 -9.5q93 0 160.5 33.5t92.5 89.5q0 2 1 4t3 7z" />
    <glyph glyph-name="uniE657" unicode="&#xe657;" 
d="M513 737q92 0 174 -35.5t142.5 -96t96 -142.5t35.5 -174q0 -93 -35.5 -174.5t-96 -142.5t-142.5 -96t-174 -35q-93 0 -174.5 35t-142.5 96t-96 142.5t-35 174.5q0 92 35 174t96 142.5t142.5 96t174.5 35.5zM274 428q0 -36 20 -60.5t49 -24.5t49.5 24.5t20.5 60.5
q0 35 -20.5 59.5t-49.5 24.5t-49 -24.5t-20 -59.5zM511 -41q28 0 52 11t42 29t28.5 42.5t10.5 52t-10.5 51.5t-28.5 42t-42 29t-52 11t-52 -11t-42.5 -29t-28.5 -42t-10 -51.5t10 -52t28.5 -42.5t42.5 -29t52 -11zM675 345q30 0 50.5 24.5t20.5 59.5q0 36 -20.5 60.5
t-50.5 24.5t-50.5 -24.5t-20.5 -60.5q0 -35 20.5 -59.5t50.5 -24.5z" />
    <glyph glyph-name="uniE658" unicode="&#xe658;" 
d="M513 734q93 0 174.5 -35t142 -95.5t96 -142.5t35.5 -174q0 -93 -35.5 -174.5t-96 -142.5t-142 -96.5t-174.5 -35.5t-174.5 35.5t-142.5 96.5t-96 142.5t-35 174.5q0 92 35 174t96 142.5t142.5 95.5t174.5 35zM274 426q0 -36 20 -60.5t49 -24.5q30 0 50 24.5t20 60.5
q0 35 -20 59.5t-50 24.5q-29 0 -49 -24.5t-20 -59.5zM639 94h-256v-63h256v63zM675 343q30 0 50.5 24.5t20.5 59.5q0 36 -20.5 60.5t-50.5 24.5t-50.5 -24.5t-20.5 -60.5q0 -35 20.5 -59.5t50.5 -24.5z" />
    <glyph glyph-name="uniE659" unicode="&#xe659;" 
d="M513 738q92 0 174 -35.5t142.5 -96.5t96 -142.5t35.5 -174.5q0 -92 -35.5 -174t-96 -142.5t-142.5 -95.5t-174 -35q-93 0 -174.5 35t-142.5 95.5t-96 142.5t-35 174q0 93 35 174.5t96 142.5t142.5 96.5t174.5 35.5zM766 161q1 3 1 8t-1.5 11t-6 11t-13.5 8
q-23 -29 -58 -51q-30 -20 -75.5 -35.5t-106.5 -15.5t-104.5 15.5t-72.5 35.5q-34 22 -58 51q-15 -3 -18 -17.5t-1 -20.5q1 -1 1 -2q9 -28 32.5 -52t57.5 -42t76.5 -27.5t89.5 -9.5q93 0 160.5 33.5t92.5 89.5q0 1 1 3t3 7zM660.5 290q31.5 0 70 19t73.5 42q40 27 81 63
l-18 70h-681l-26 -74q36 -32 70 -57q30 -22 64 -39.5t60.5 -17.5t45 10t35 21t34 21t42.5 10t39.5 -11t28.5 -23t32 -23t49.5 -11z" />
    <glyph glyph-name="uniE65A" unicode="&#xe65a;" 
d="M967 726q25 -58 33 -110q4 -23 4 -46.5t-6 -45t-19 -40.5t-36 -31q-2 -2 -5 -2.5t-5 -2.5q14 -37 21.5 -77t7.5 -82q0 -93 -35.5 -174.5t-96 -142.5t-142.5 -96t-174 -35q-93 0 -174.5 35t-142.5 96t-96 142.5t-35 174.5q0 82 28 157l-7 4l-7 3q-24 12 -36.5 31t-19 40.5
t-6 45t4.5 46.5q8 52 33 110q12 -35 26 -68q12 -29 29.5 -58.5t38.5 -49.5q61 86 155.5 136.5t208.5 50.5q55 0 107.5 -13.5t98.5 -37.5t85.5 -58t70.5 -76q20 21 36.5 50t28.5 57q14 32 26 67zM249 526q13 -43 29 -79q13 -31 29.5 -60t33.5 -38t36.5 -1t36.5 21
q18 15 38 39zM767 161q1 2 1 7t-1.5 11.5t-6 11.5t-12.5 8q-24 -29 -59 -51q-30 -20 -75.5 -35.5t-106.5 -15.5t-104.5 15.5t-72.5 35.5q-34 22 -58 51q-8 -2 -12 -7t-6 -11.5t-2 -11.5t1 -8q1 -1 1 -3q9 -28 32.5 -52t57.5 -42t76.5 -27.5t89.5 -9.5q93 0 160.5 33.5
t92.5 89.5q0 2 1 4t3 7zM682 349q17 9 33.5 38t29.5 60q16 36 29 79l-203 -118q20 -24 38 -39q17 -13 36.5 -21t36.5 1z" />
    <glyph glyph-name="uniE65B" unicode="&#xe65b;" 
d="M512 737q93 0 174.5 -35.5t142.5 -96t96.5 -142.5t35.5 -174q0 -93 -35.5 -174.5t-96.5 -142.5t-142.5 -96t-174.5 -35q-92 0 -174 35t-142.5 96t-95.5 142.5t-35 174.5q0 92 35 174t95.5 142.5t142.5 96t174 35.5zM446 482h-192v-65h192v65zM639 354h-65v-128h65v128z
M767 354h-65v-128h65v128zM767 482h-193v-65h193v65zM895 226v256h-65v-256h65z" />
    <glyph glyph-name="uniE65C" unicode="&#xe65c;" 
d="M512 737q92 0 174 -35.5t142.5 -96.5t95.5 -142.5t35 -174.5q0 -92 -35 -174t-95.5 -142.5t-142.5 -95.5t-174 -35q-93 0 -174.5 35t-142.5 95.5t-96.5 142.5t-35.5 174q0 93 35.5 174.5t96.5 142.5t142.5 96.5t174.5 35.5zM253 417h192v65h-192v-65zM558 110
q-11 6 -33 12.5t-42 16t-31.5 22.5t0.5 34q14 26 33.5 32t37.5 2q22 -4 44 -19l29 59q-39 20 -77 25q-33 4 -68 -6.5t-62 -52.5q-10 -17 -12.5 -31t0.5 -26.5t9.5 -23t14.5 -20.5q20 -20 53 -35q-22 2 -39 -6q-15 -6 -27.5 -23.5t-13.5 -52.5q-1 -27 7 -46.5t21.5 -33.5
t31 -22.5t35.5 -12.5q43 -11 98 -6v60q-36 1 -62 5q-24 4 -42 12.5t-16 24.5q4 22 15 31t26 11t32 0.5t32 -2.5t22 8.5t7 21.5t-6.5 24t-16.5 18zM766 482h-193v-65h193v65z" />
    <glyph glyph-name="uniE65D" unicode="&#xe65d;" 
d="M968 725q25 -58 33 -110q4 -23 4 -46t-6 -44.5t-19 -40.5t-36 -31q-2 -2 -5 -3t-5 -3q14 -37 21.5 -76.5t7.5 -82.5q0 -92 -35.5 -174t-96.5 -142.5t-142.5 -95.5t-174.5 -35q-92 0 -174 35t-142.5 95.5t-95.5 142.5t-35 174q0 42 7 81.5t21 76.5q-7 3 -14 7
q-24 12 -36.5 31t-19 40.5t-6 44.5t4.5 46q8 52 33 110q12 -36 26 -68q12 -29 29.5 -58t38.5 -49q61 85 155.5 136t207.5 51t207 -50.5t156 -134.5q20 20 36.5 49.5t28.5 57.5q14 32 26 66zM250 526q13 -44 29 -80q13 -31 29.5 -59.5t33.5 -38t36.5 -1t36.5 21.5
q18 15 38 38zM752 -12q8 3 12.5 8t6 11.5t1.5 11.5t-1 8q-2 5 -3 7t-1 4q-25 56 -93 91t-162 35q-47 0 -89.5 -10t-76.5 -28t-58 -43t-33 -54q0 -1 -1 -2q-2 -6 1 -21t18 -18q24 29 58 52q29 21 73.5 37t105.5 16t107 -16t75 -37q35 -23 60 -52zM683 348.5q17 9.5 33.5 38
t29.5 59.5q16 36 29 80l-203 -119q20 -23 38 -38q17 -13 36.5 -21.5t36.5 1z" />
    <glyph glyph-name="uniE65E" unicode="&#xe65e;" 
d="M512 737q93 0 174.5 -35.5t142.5 -96t96.5 -142.5t35.5 -174q0 -93 -35.5 -174.5t-96.5 -142.5t-142.5 -96t-174.5 -35q-92 0 -174 35t-142.5 96t-95.5 142.5t-35 174.5q0 92 35 174t95.5 142.5t142.5 96t174 35.5zM671 547q-35 0 -59 -28.5t-24 -69.5q0 -42 24 -71
t59 -29t59 29t24 71q0 41 -24 69.5t-59 28.5zM254 354h192v63h-192v-63zM766 161q1 2 1 7t-1.5 11.5t-6 11.5t-13.5 8q-23 -29 -58 -51q-30 -20 -75.5 -35.5t-107 -15.5t-104.5 15.5t-72 35.5q-34 22 -58 51q-8 -2 -12 -7t-6 -11.5t-2 -11.5t1 -8q1 -1 0.5 -1.5t0.5 -1.5
q9 -28 32.5 -52t57.5 -42t76.5 -27.5t89.5 -9.5q93 0 160.5 33.5t92.5 89.5q0 2 1 4t3 7z" />
    <glyph glyph-name="uniE65F" unicode="&#xe65f;" 
d="M512 737q93 0 174.5 -35.5t142.5 -96t96.5 -142.5t35.5 -174q0 -93 -35.5 -174.5t-96.5 -142.5t-142.5 -96t-174.5 -35q-92 0 -174 35t-142.5 96t-95.5 142.5t-35 174.5q0 92 35 174t95.5 142.5t142.5 96t174 35.5zM248 526q13 -43 28 -79q14 -31 30.5 -60t33.5 -38
t36.5 -1t36.5 21q18 15 38 39zM750 -12q8 3 12.5 8t6 11.5t1.5 12t-1 7.5q-2 8 -5 11q-12 29 -35.5 52t-56.5 40t-74 26t-88 9t-89.5 -10t-76.5 -28.5t-58 -43t-33 -53.5q-1 -1 -1 -3q-2 -6 1 -20.5t18 -18.5q24 30 58 53q29 21 73 37t105.5 16t107 -16t75.5 -37
q35 -23 60 -53zM681 349q17 9 33.5 38t29.5 60q16 36 29 79l-203 -118q20 -24 38 -39q17 -13 36.5 -21t36.5 1z" />
    <glyph glyph-name="uniE660" unicode="&#xe660;" 
d="M512 737q93 0 174.5 -35.5t142.5 -96t96.5 -142.5t35.5 -174q0 -93 -35.5 -174.5t-96.5 -142.5t-142.5 -96t-174.5 -35q-92 0 -174 35t-142.5 96t-95.5 142.5t-35 174.5q0 92 35 174t95.5 142.5t142.5 96t174 35.5zM340 349q17 -9 36.5 -1t36.5 21q18 15 38 39l-203 118
q13 -43 28 -79q14 -31 30.5 -60t33.5 -38zM510 -41q28 0 52 11t42.5 29t28.5 42.5t10 52t-10 51.5t-28.5 42t-42.5 29t-52 11t-52 -11t-42 -29t-28.5 -42t-10.5 -51.5t10.5 -52t28.5 -42.5t42 -29t52 -11zM681 349q17 9 33.5 38t29.5 60q16 36 29 79l-203 -118
q20 -24 38 -39q17 -13 36.5 -21t36.5 1z" />
    <glyph glyph-name="uniE661" unicode="&#xe661;" 
d="M511 738q93 0 174.5 -35.5t142.5 -96t96 -142.5t35 -174q0 -93 -35 -174.5t-96 -142.5t-142.5 -96t-174.5 -35q-92 0 -174 35t-142.5 96t-96 142.5t-35.5 174.5q0 92 35.5 174t96 142.5t142.5 96t174 35.5zM253 418h68q3 -29 10.5 -47t17.5 -18t18 18t11 47h67v65h-192
v-65zM701 98h-384v-64h384v64zM766 483h-193v-65h68q3 -29 10.5 -47t18 -18t18 18t10.5 47h68v65z" />
    <glyph glyph-name="uniE662" unicode="&#xe662;" 
d="M508 81q0 -2 -2 -10q0 7 1 10q0 2 1 4v-4zM971 697q-3 -29 -15 -59q-9 -25 -27.5 -55.5t-49.5 -57.5q39 -56 61 -121.5t22 -138.5q0 -93 -35.5 -174.5t-96 -142t-142.5 -96t-174 -35.5q-93 0 -174.5 35.5t-142.5 96t-96 142t-35 174.5q0 72 21 137t59 120
q-32 28 -51 58.5t-28 56.5q-12 30 -15 60q54 16 104 20q20 1 42 0t42 -7t37.5 -17.5t29.5 -29.5q94 50 207 50q53 0 103 -12t95 -34q10 15 27 25t37 15t42.5 6t43.5 0q50 -3 109 -16zM255 393h192v65h-192v-65zM605 9q45 0 66 13t28.5 31.5t5.5 38.5t-2 35.5t-9 21t-19.5 5
t-19.5 -7t-9 -17.5q0 -20 -7 -38t-25 -18q-7 0 -17 7.5t-20.5 20.5t-19 29.5t-12.5 33.5q15 7 25 19.5t10 28.5q0 23 -19.5 38.5t-47.5 15.5q-29 0 -48.5 -15.5t-19.5 -38.5q0 -14 8 -25.5t20 -19.5q0 -18 -2.5 -35t-8.5 -29.5t-17 -20t-29 -7.5q-21 0 -29 3t-10 9.5t0 16
t2 21.5t-10.5 18.5t-22.5 6.5t-22.5 -8t-10.5 -23q0 -32 11 -56q8 -21 28 -38.5t58 -17.5q26 0 44 7t29 16.5t16 21t7 19.5q0 -8 3 -19t14 -20t30 -16t52 -7zM768 458h-193v-65h193v65z" />
    <glyph glyph-name="uniE663" unicode="&#xe663;" 
d="M511 735q93 0 174.5 -35t142.5 -95.5t96 -142.5t35 -174q0 -93 -35 -174.5t-96 -142.5t-142.5 -96.5t-174.5 -35.5q-92 0 -174 35.5t-142.5 96.5t-96 142.5t-35.5 174.5q0 92 35.5 174t96 142.5t142.5 95.5t174 35zM349 349q42 0 71.5 29t29.5 71t-29.5 70.5t-71.5 28.5
q-20 0 -38 -7.5t-32 -21t-21.5 -32t-7.5 -39t7.5 -39t21.5 -31.5t32 -21t38 -8zM670 349q42 0 71 29t29 71t-29 70.5t-71 28.5q-21 0 -39 -7.5t-31.5 -21t-21.5 -32t-8 -39t8 -39t21.5 -31.5t31.5 -21t39 -8zM350 495q20 0 33 -13.5t13 -33t-13 -33t-33 -13.5t-33.5 13.5
t-13.5 33t13.5 33t33.5 13.5zM671 500q20 0 35.5 -15t15.5 -36.5t-15.5 -36t-35.5 -14.5q-22 0 -37.5 14.5t-15.5 36t15.5 36.5t37.5 15z" />
    <glyph glyph-name="uniE664" unicode="&#xe664;" 
d="M511 735q93 0 174.5 -35t142.5 -95.5t96 -142.5t35 -174q0 -93 -35 -174.5t-96 -142.5t-142.5 -96.5t-174.5 -35.5q-92 0 -174 35.5t-142.5 96.5t-96 142.5t-35.5 174.5q0 92 35.5 174t96 142.5t142.5 95.5t174 35zM394 449l91 90l-46 46l-90 -91l-91 91l-45 -46l91 -90
l-91 -91l45 -45l91 90l90 -90l46 45zM715 449l91 90l-46 46l-90 -91l-91 91l-45 -46l91 -90l-91 -91l45 -45l91 90l90 -90l46 45z" />
    <glyph glyph-name="uniE665" unicode="&#xe665;" 
d="M904 -9q27 -30 29 -53t-18 -46q-23 -25 -51 -24t-53 23l-162 155q-43 -28 -92.5 -43t-104.5 -15q-74 0 -139.5 28t-114.5 77t-77.5 114.5t-28.5 140t28.5 140t77.5 114.5t114.5 77.5t140 28.5t140 -28.5t114.5 -77.5t77 -114.5t28 -139.5q0 -57 -16 -108t-46 -94l32 -32
q23 -23 48.5 -48t46.5 -47t27 -28zM456 108q50 0 94.5 18.5t77 51t51 77t18.5 94t-18.5 94t-51 77t-77 51t-94.5 18.5t-94 -18.5t-76.5 -51t-51.5 -77t-19 -94t19 -94t51.5 -77t76.5 -51t94 -18.5z" />
    <glyph glyph-name="uniE666" unicode="&#xe666;" 
d="M683 226q32 0 59 -12t47 -32.5t32 -48t12 -59t-12 -59t-32 -47.5t-47 -32t-59 -12t-59 12t-47.5 32t-32.5 47.5t-12 59.5q0 9 1 17t3 17l-152 127q-13 -6 -28.5 -9t-31.5 -3q-32 0 -59 12t-47.5 32t-32.5 47.5t-12 59t12 58.5t32.5 47.5t47.5 32.5t59 12q35 0 68 -16
l144 134q-4 13 -4 31q0 31 12 58.5t32.5 47.5t47.5 32t59 12t59 -12t47 -32t32 -47.5t12 -59t-12 -58.5t-32 -48t-47 -32.5t-59 -11.5q-22 0 -41.5 5.5t-36.5 16.5l-136 -128q5 -22 5 -43q0 -27 -8 -50l140 -118q18 9 37 14.5t40 5.5z" />
    <glyph glyph-name="uniE667" unicode="&#xe667;" 
d="M98 554h828q15 0 25.5 10.5t10.5 25.5t-10.5 25.5t-25.5 10.5h-828q-15 0 -25.5 -10.5t-10.5 -25.5q0 -25 23 -33q7 -2 13 -3zM926 318h-828q-10 0 -18 -5t-13 -13t-5 -18q0 -15 10.5 -25t25.5 -10h828q15 0 25.5 10t10.5 25q0 7 -3 13.5t-7.5 11.5t-11 8t-14.5 3z
M926 10h-828q-8 0 -14.5 -3t-11 -7.5t-7.5 -11.5t-3 -14q0 -15 10.5 -25t25.5 -10h828q15 0 25.5 10t10.5 25t-10.5 25.5t-25.5 10.5z" />
    <glyph glyph-name="uniE668" unicode="&#xe668;" 
d="M512 735q92 0 174 -35t142.5 -95.5t95.5 -142.5t35 -174q0 -93 -35 -174.5t-95.5 -142.5t-142.5 -95.5t-174 -34.5q-93 0 -174.5 34.5t-142.5 95.5t-96.5 142.5t-35.5 174.5q0 92 35.5 174t96.5 142.5t142.5 95.5t174.5 35zM673.5 513q-29.5 0 -50 -24.5t-20.5 -59.5
q0 -36 20.5 -60.5t50 -24.5t50 24.5t20.5 60.5q0 35 -20.5 59.5t-50 24.5zM342 511q-29 0 -49 -24.5t-20 -59.5q0 -36 20 -60t49 -24t49.5 24t20.5 60q0 35 -20.5 59.5t-49.5 24.5zM516 -45q54 0 103 19.5t87.5 53.5t66 79t38.5 96v5q0 8 -6 15t-15 7h-548q-10 0 -17.5 -7
t-5.5 -15q2 -10 3 -14t2 -6q14 -50 41.5 -92t65 -73.5t84.5 -49.5t101 -18z" />
    <glyph glyph-name="uniE669" unicode="&#xe669;" horiz-adv-x="1086" 
d="M993 459q39 -54 58.5 -114t27 -118t7 -108t-0.5 -82q0 -6 -1 -15t-3.5 -17.5t-6 -14.5t-9.5 -6h-42q0 34 -11 59t-28.5 40t-41.5 22.5t-51 7.5t-49.5 -10.5t-39.5 -28t-26.5 -40.5t-9.5 -48h-18q-19 0 -32.5 13t-13.5 32v1v492q0 12 8 26.5t19 15.5q34 3 71 -2.5
t72.5 -19t67.5 -35t53 -50.5zM977 239q12 0 21.5 0.5t9.5 12.5q0 2 -0.5 3t-0.5 3q-12 50 -25 96.5t-45 79.5q-21 20 -44.5 28.5t-44.5 11t-35 1.5t-15 -1q-14 0 -23 -9.5t-9 -21.5v-93q0 -41 1 -91v-1q0 -5 7 -12t14 -7h189zM637 691l2 -666q0 -18 -12 -29t-28 -11h-280
q0 60 -30.5 95t-95.5 35q-63 0 -96.5 -32.5t-33.5 -97.5h-23q-17 0 -28.5 10t-11.5 30v532q0 25 9 48.5t26 43t39.5 31t49.5 11.5h513zM896 48q27 0 46.5 -19.5t19.5 -45.5q0 -28 -19.5 -47.5t-46.5 -19.5q-28 0 -47 19.5t-19 47.5q0 26 19 45.5t47 19.5zM191.5 49
q27.5 0 46.5 -19.5t19 -46.5t-19 -46.5t-46.5 -19.5t-46.5 19.5t-19 46.5t19 46.5t46.5 19.5z" />
    <glyph glyph-name="uniE66A" unicode="&#xe66a;" 
d="M1019 442q5 -36 -11.5 -68.5t-53.5 -53.5v-341q0 -29 -10 -53t-28 -41.5t-41 -27.5t-49 -10h-575q-28 0 -51.5 10t-41.5 27.5t-27.5 41.5t-9.5 53v341q-36 22 -53.5 54t-11.5 68l52 247q5 25 24 41.5t44 16.5h205h317h198q31 0 51 -16.5t25 -41.5zM889 291q-15 -3 -30 -3
q-33 0 -61.5 11.5t-50.5 32t-35 48.5t-14 59q-1 -31 -13 -59t-33.5 -48.5t-50.5 -32t-61.5 -11.5t-61.5 12t-50.5 33t-34 49.5t-12.5 59.5q0 -31 -13.5 -59.5t-36 -49.5t-52.5 -33t-63 -12q-15 0 -31 3v-119q0 -12 6 -24.5t15 -21.5t20.5 -15t22.5 -6h577q11 0 22 5.5
t20.5 13.5t15 20t5.5 24v123z" />
    <glyph glyph-name="uniE66B" unicode="&#xe66b;" 
d="M895 238q0 -79 -29.5 -149t-81.5 -123.5t-122 -88t-151 -41.5q-5 -1 -9 -1.5t-9 -0.5h-178q-17 0 -34 6t-30 17t-22 25.5t-9 29.5t8.5 29.5t21.5 24.5t29.5 16.5t33.5 6.5l159 -1q54 0 102.5 20t84 53.5t56 79t20.5 98.5q0 49 -18.5 92t-50.5 76.5t-75 54.5t-93 26
q-2 0 -2.5 -0.5t-2.5 -0.5h-163v-81q0 -17 -14 -25t-45 10q-8 5 -26 18t-42 30.5t-50 36.5l-52 39q-15 12 -26.5 22t-11.5 24q0 12 13 25.5t29 26.5q19 16 44.5 36.5t50.5 40t45 35t28 21.5q25 18 40.5 7.5t16.5 -30.5v-82h163q5 0 10.5 -1t10.5 -2q80 -8 149.5 -42
t121.5 -87.5t81 -123.5t29 -147z" />
    <glyph glyph-name="uniE66C" unicode="&#xe66c;" 
d="M109 240q0 77 29 147t80.5 123.5t121.5 87.5t149 42q11 3 22 3h163v82q1 20 16.5 30.5t39.5 -6.5q7 -6 27.5 -21.5t45.5 -35.5t51 -40.5t44 -36.5q16 -13 28.5 -26.5t12.5 -25.5q0 -14 -10.5 -24t-26.5 -22l-51 -39q-27 -19 -51 -36.5t-42.5 -30.5t-26.5 -17
q-15 -9 -26 -11.5t-17.5 0.5t-10 10t-3.5 16v81h-163h-5q-50 -5 -93 -26t-75.5 -54.5t-51 -76.5t-18.5 -92q0 -53 20.5 -98.5t56.5 -79t84 -53.5t102 -20l159 1q17 0 33.5 -6.5t29.5 -16.5t21 -24t8 -30q0 -15 -8 -29.5t-22 -25t-30.5 -16.5t-33.5 -6h-177h-9q-4 0 -9 1
q-81 7 -151.5 41.5t-122 88t-81 123.5t-29.5 149z" />
    <glyph glyph-name="uniE66D" unicode="&#xe66d;" 
d="M900 332q0 -15 -6.5 -29t-16.5 -24.5t-24.5 -17t-29.5 -6.5h-28q32 0 54.5 -21t22.5 -51.5t-22.5 -52.5t-54.5 -22h-29q33 0 55.5 -22.5t22.5 -52.5q0 -16 -8.5 -30t-23.5 -24t-34 -15.5t-39 -5.5q31 0 51 -22.5t20 -53.5q0 -19 -11 -33t-28 -23t-36 -13.5t-35 -4.5h-402
q-31 0 -57.5 10t-46 29t-30.5 44.5t-11 58.5v294q0 19 1.5 38t7 36t17.5 31t33 23q19 7 43.5 22.5t50.5 36.5t51 47.5t45.5 56t32.5 61t12 64.5q1 28 7.5 47.5t17.5 31.5t24 17t27 5q34 0 57.5 -21t33.5 -69q2 -41 -5 -87q-6 -40 -20.5 -87t-43.5 -93h278q32 0 54.5 -20.5
t22.5 -51.5z" />
    <glyph glyph-name="uniE66E" unicode="&#xe66e;" 
d="M908 225q0 -31 -22.5 -51.5t-54.5 -20.5h-279q30 -47 45 -94t20 -86q6 -46 5 -88q-10 -48 -33.5 -69t-58.5 -21q-13 0 -26.5 5.5t-24 17.5t-17.5 31t-8 48q0 33 -12.5 65t-32.5 61t-45 55t-51 47t-51 36.5t-44 23.5q-21 9 -32.5 23t-17.5 31.5t-7.5 36.5t-1.5 38v294
q0 33 11.5 59t31 45t46 29t57.5 10h402q16 0 35.5 -4.5t36 -13.5t28 -23.5t11.5 -33.5q0 -32 -20 -53.5t-52 -21.5q21 0 40 -6t34 -16t23.5 -23.5t8.5 -29.5q0 -32 -22.5 -54t-54.5 -22h28q32 0 55 -21.5t23 -53t-23 -52t-55 -20.5h28q16 0 30.5 -6.5t24.5 -17t16 -24.5
t6 -30z" />
    <glyph glyph-name="uniE66F" unicode="&#xe66f;" 
d="M765 353h-509v163q0 58 20 109t54.5 89.5t81 60.5t99.5 22t99.5 -22t81 -60.5t54 -89.5t19.5 -109v-163zM511 -33q-52 0 -98.5 15.5t-81 44t-55 68.5t-20.5 91v101h509v-101q0 -41 -20 -80t-55 -70t-81 -50t-98 -19zM966 288q29 0 42.5 -7t13.5 -25q0 -22 -14 -28t-35 -6
h-18q-5 -49 -17 -98q-11 -43 -30 -91.5t-49 -91.5q-57 -79 -148 -121.5t-201 -42.5q-109 0 -195.5 34.5t-153.5 116.5q-34 41 -53.5 92t-29.5 96q-11 52 -16 105h-12q-34 1 -41.5 9.5t-7.5 28.5q0 19 16.5 24t41.5 5q26 1 46.5 0.5t32.5 0.5q22 0 33 -3t15.5 -9t4.5 -18v-25
q0 -9 -3.5 -28.5t-1.5 -48t12.5 -65.5t38.5 -82q26 -44 64 -67t77 -32.5t74 -10t58 -0.5q36 1 70 2.5t65.5 9.5t60 25t54.5 50q27 35 41 68.5t19.5 63.5t6 56t1.5 47q1 28 3.5 42t8.5 19t17 5h109z" />
    <glyph glyph-name="uniE670" unicode="&#xe670;" 
d="M367 50q17 0 32.5 -6.5t27 -18t18 -26.5t6.5 -32t-6.5 -32.5t-18 -27t-27 -18t-32.5 -6.5q-18 0 -33 7t-26.5 18t-18 26.5t-6.5 32.5t6.5 32t18 26.5t26.5 18t33 6.5zM741.5 48q17.5 0 33 -6.5t27 -17.5t18 -26.5t6.5 -32.5t-6.5 -32.5t-18 -26.5t-27 -18t-33 -7t-32.5 7
t-26.5 18t-18 26.5t-6.5 32.5t6.5 32.5t18 26.5t26.5 17.5t32.5 6.5zM893 559q25 0 39 -7t20 -16.5t5.5 -21t-3.5 -19.5t-11.5 -33.5t-19.5 -55.5t-21 -59.5t-16 -46.5q-11 -36 -29 -50t-44 -14h-473l14 -81h453q43 0 43 -37q0 -18 -8.5 -31t-33.5 -13h-472q-18 0 -30 8
t-20 21t-13 28.5t-8 28.5q0 6 -4.5 26.5t-10 51.5t-13 69.5t-14.5 76.5q-17 91 -39 203h-67q-14 0 -23 6.5t-14.5 16t-8 20.5t-2.5 20q0 18 12.5 29.5t32.5 11.5h91q18 0 29 -5.5t17 -13.5t9 -17l5 -15q1 -7 3 -20t4 -27q2 -16 5 -34h616z" />
    <glyph glyph-name="uniE671" unicode="&#xe671;" 
d="M896 464q0 -10 -0.5 -19t-1.5 -20q-10 -85 -38 -163t-71 -150t-99 -138.5t-122 -128.5q-9 -11 -23 -11q-16 0 -25 11q-65 62 -122 129.5t-100.5 141t-71.5 153t-36 164.5q0 9 -0.5 16t-0.5 15q0 72 28 135.5t76 110.5t113 74.5t138.5 27.5t138 -27.5t112.5 -74.5
t76.5 -110.5t28.5 -135.5zM540.5 305q33.5 0 63.5 12.5t52 34t34.5 50.5t12.5 62t-12.5 62t-34.5 50.5t-52 34.5t-63.5 13t-63 -13t-52 -34.5t-35.5 -50.5t-13 -62t13 -62t35.5 -50.5t52 -34t63 -12.5z" />
    <glyph glyph-name="uniE672" unicode="&#xe672;" 
d="M366 29q17 0 32.5 -6.5t26.5 -17.5t18 -26.5t7 -32.5t-7 -32.5t-18 -26.5t-26.5 -18t-32.5 -7q-18 0 -33 7t-26.5 18t-18 26.5t-6.5 32.5t6.5 32.5t18 26.5t26.5 17.5t33 6.5zM741 27q17 0 32.5 -6.5t27 -17.5t18 -26.5t6.5 -32.5t-6.5 -32t-18 -26.5t-27 -18.5t-32.5 -7
t-32.5 7t-27 18t-18 26.5t-6.5 32.5t6.5 32.5t18 26.5t27 17.5t32.5 6.5zM892 538q25 0 39 -6.5t20 -16.5t5.5 -21.5t-3.5 -19.5t-12 -33t-19 -55t-20.5 -60t-16.5 -47q-12 -36 -29.5 -50t-43.5 -14h-473l13 -81h454q43 0 43 -37q0 -18 -8.5 -31t-33.5 -13h-471
q-18 0 -30.5 8t-20.5 21t-13 28.5t-8 29.5q0 5 -4.5 25.5t-10 51.5t-13 69.5t-14.5 77.5q-17 90 -39 202h-67q-14 0 -23 7t-14.5 16.5t-8 20t-2.5 19.5q0 18 12.5 30t32.5 12h91q18 0 29 -5.5t17 -13.5t9 -17t5 -16q1 -7 3 -20t4 -27q3 -16 5 -34h616zM824 567h-329l119 119
q20 20 45 20.5t46 -19.5z" />
    <glyph glyph-name="uniE673" unicode="&#xe673;" horiz-adv-x="1028" 
d="M376 43q17 0 32.5 -6t26.5 -17.5t18 -26.5t7 -32.5t-7 -32.5t-18 -26.5t-26.5 -18t-32.5 -6.5q-18 0 -33.5 6.5t-26.5 18t-18 26.5t-7 32.5t7 32.5t18 26.5t26.5 17.5t33.5 6zM750 41q17 0 33 -6t27 -17.5t18 -26.5t7 -32t-7 -32.5t-18 -27t-27 -18t-33 -6.5t-32 6.5
t-26.5 18t-18 27t-6.5 32.5t6.5 32t18 26.5t26.5 17.5t32 6zM901 553q26 0 40 -7t19.5 -17t5 -21t-3 -19t-11.5 -33.5t-19.5 -55.5t-20.5 -60t-17 -47q-11 -36 -29 -49.5t-44 -13.5h-472l12 -82h455q43 0 43 -36q0 -18 -8.5 -31.5t-33.5 -12.5h-472q-18 0 -30 8t-20 21
t-13 28t-8 29q-1 5 -5 26t-10 52t-13 69t-14 77q-17 91 -39 202h-67q-14 0 -23 7t-15 16.5t-8 20t-2 20.5q0 18 12 29.5t33 10.5h91q18 0 28.5 -5.5t17 -13.5t9 -16.5t4.5 -14.5q2 -8 4 -21t3 -26q3 -16 6 -34h615zM868 472l-563 2l31 -163l471 -1z" />
    <glyph glyph-name="uniE674" unicode="&#xe674;" 
d="M564 756q43 0 58.5 -20.5t15.5 -65.5q0 -21 0.5 -65t0.5 -93.5t0.5 -96.5t0.5 -75q0 -39 7.5 -62t35.5 -22q19 0 48 -1t49 -1q36 0 46 -19t-14 -49q-25 -31 -57.5 -73t-68 -86t-69 -86.5t-59.5 -75.5q-23 -30 -45.5 -31t-45.5 28q-25 30 -57.5 70t-67 82.5t-67.5 84
t-60 73.5q-30 36 -22.5 59t44.5 23h24q14 0 29.5 0.5t30.5 1.5t26 1q27 0 33 15.5t6 42.5q0 29 -0.5 77.5t-0.5 100.5t-0.5 101t-0.5 80q0 13 2 27.5t9.5 26.5t21 19.5t37.5 7.5q27 0 52.5 0.5t57.5 0.5z" />
    <glyph glyph-name="uniE675" unicode="&#xe675;" 
d="M421 727h-55v-774q-81 106 -201 157v-62q132 -64 201 -198v-1h55v13v0v865zM658 727h-55v-878h55v774q81 -106 201 -157v62q-21 11 -41 23.5t-39 27.5t-36 31.5t-32 35t-28.5 39t-24.5 42.5z" />
    <glyph glyph-name="uniE676" unicode="&#xe676;" 
d="M866 311q1 -12 1 -23q0 -72 -28 -138t-75.5 -113.5t-113.5 -75.5t-138 -28q-96 0 -178 47.5t-129.5 129.5t-47.5 178q0 72 28 138t75.5 113.5t113.5 75.5t138 28t137 -27.5t114 -76.5l50 50q-59 59 -136.5 92t-164.5 33q-116 0 -214 -57t-155 -155t-57 -214t57 -214
t155 -155t214 -57q87 0 165.5 33.5t136 90.5t91 136t33.5 166q0 44 -9 86zM863 528l-350 -350l-184 184l-51 -50l235 -235l50 51q20 20 336 335q7 8 15 15.5t14 14t12 11.5l9 10q4 4 7 6.5t4 4.5l2 1l-50 51l-1 -1q-1 -1 -2.5 -2t-3 -3t-4.5 -4.5t-6 -6t-7 -6.5l-7 -8l-9 -8
z" />
    <glyph glyph-name="uniE677" unicode="&#xe677;" 
d="M512 629q-54 0 -104 -16.5t-90.5 -47t-71 -71t-47 -90.5t-16.5 -104q0 -89 44 -165t120 -120t165 -44q67 0 128 26t105 70t70 105t26 128q0 89 -44 165t-120 120t-165 44zM512 26q-114 0 -194 80t-80 194t80 194t194 80q56 0 106.5 -21.5t87.5 -58.5t58.5 -87.5
t21.5 -106.5q0 -75 -36.5 -138t-99.5 -99.5t-138 -36.5z" />
    <glyph glyph-name="uniE678" unicode="&#xe678;" 
d="M967 233q0 -43 -20.5 -58.5t-65.5 -15.5h-65q-44 0 -93.5 -0.5t-96.5 -0.5h-75q-39 0 -62 -7.5t-22 -35.5q0 -21 -1 -49t-1 -49q0 -36 -19.5 -46t-50.5 14q-30 24 -72 57.5t-85.5 68.5t-86 68.5t-75.5 59.5q-31 24 -31.5 46t28.5 46q28 25 68 57t83 66.5t84.5 68
t74.5 60.5q36 29 59 22t23 -44v-25q0 -15 1 -30v-30q1 -15 1 -26q1 -26 16.5 -32.5t41.5 -6.5q30 0 78 0.5t100.5 0.5t101.5 0.5t80 0.5q13 0 27.5 -2t26 -10t19.5 -21.5t8 -36.5q0 -27 0.5 -53t0.5 -57z" />
    <glyph glyph-name="uniE679" unicode="&#xe679;" 
d="M470 -177q-44 0 -59.5 20.5t-15.5 65.5q0 21 -0.5 65t-1 93.5t-1.5 96.5t-1 75q0 40 -7.5 62.5t-35.5 21.5q-20 0 -48.5 1t-49.5 0q-36 0 -45.5 19.5t13.5 49.5q25 31 57.5 73t67.5 86t68 87t59 76q24 30 46 31t46 -27q25 -30 57 -69.5t67 -82t68.5 -84t60.5 -73.5
q30 -36 23 -59t-43 -23q-12 0 -25.5 -0.5t-29 -1t-30.5 -1t-27 -0.5q-26 -1 -32.5 -16.5t-5.5 -42.5q0 -29 0.5 -77t1 -100.5t1.5 -101.5t1 -80q0 -13 -2 -27.5t-9.5 -26t-21.5 -20t-36 -8.5q-28 0 -53 -0.5t-57 -1.5z" />
    <glyph glyph-name="uniE67A" unicode="&#xe67a;" 
d="M47 346q0 43 21 58t66 15q21 0 65 -0.5t93.5 -0.5t96.5 -0.5t75 -0.5q39 -1 61.5 6.5t22.5 35.5q0 20 1.5 48.5t1.5 48.5q1 36 20.5 46t49.5 -15t71 -58.5t85 -69t86 -69.5t75 -60q30 -25 30.5 -47t-28.5 -45q-30 -25 -70.5 -56.5t-84 -65.5t-85.5 -67t-74 -59
q-36 -29 -59 -21.5t-22 44.5v54q0 15 -0.5 30t-0.5 27q0 26 -15.5 32.5t-42.5 6.5q-29 0 -77.5 0.5t-100.5 0.5t-101 0.5t-80 0.5q-13 0 -27.5 2.5t-26.5 10t-19 21t-7 37.5q0 27 -0.5 53t0.5 57z" />
    <glyph glyph-name="uniE67B" unicode="&#xe67b;" 
d="M512 738q-92 0 -175 -35.5t-143.5 -96t-96 -143.5t-35.5 -175t35.5 -175t96 -143.5t143.5 -96t175 -35.5t175 35.5t143.5 96t96 143.5t35.5 175q0 61 -16 119.5t-45 108t-70.5 91t-91 70.5t-108 45t-119.5 16zM760 148q-9 -8 -22.5 -0.5t-28.5 27.5q-3 -8 -6.5 -16
t-7.5 -16t-8.5 -15.5t-9.5 -14.5q21 -7 33 -18t12 -23q0 -22 -34 -38t-83 -16q-58 0 -93 22q-34 -22 -93 -22q-48 0 -82 16t-34 38q0 12 11.5 23t32.5 18q-9 14 -17 29.5t-15 32.5q-14 -20 -27.5 -27.5t-22.5 0.5q-12 11 -8 45.5t21 71.5q4 9 8.5 16.5t9.5 14.5
q2 109 65 185.5t151 76.5q58 0 107.5 -35t78.5 -95t31 -132q9 -14 17 -31q18 -37 22 -71.5t-8 -45.5z" />
    <glyph glyph-name="uniE67C" unicode="&#xe67c;" 
d="M357 406h284v-118h-284v118zM512 733q-37 0 -72.5 -5.5t-68.5 -16.5t-64 -27t-58.5 -36.5t-52 -45t-44.5 -52t-36 -58.5t-27 -63.5t-17 -68.5t-6 -72q0 -73 22.5 -141t64 -123t96 -96t122.5 -63.5t141 -22.5q91 0 173.5 35.5t142 95t95 142t35.5 173.5q0 60 -16 118
t-45 107t-70 90t-90 69.5t-106.5 44.5t-118.5 16zM262 572h498v-47h-498v47zM712 454v-214h-426v214h426zM760 51h-522v47h163q-4 14 -8.5 25t-10.5 21.5t-11 17t-13 18t-13 19.5l56 20q11 -17 21.5 -36t19.5 -40t18 -45h106q5 12 25 54.5t29 68.5l61 -25q-7 -15 -24 -43.5
t-27 -54.5h130v-47z" />
    <glyph glyph-name="uniE67D" unicode="&#xe67d;" 
d="M658 -204h223l-483 484l483 520h-223l-483 -520z" />
    <glyph glyph-name="uniE67E" unicode="&#xe67e;" 
d="M630 236v-103h-104v-104h-104v-104h-103v726h103v-103h104v-104h104v-104h104v-104h-104z" />
    <glyph glyph-name="uniE67F" unicode="&#xe67f;" horiz-adv-x="1029" 
d="M942 282q19 -18 20 -39.5t-14 -36.5q-18 -15 -40.5 -14t-35.5 13q-5 3 -27.5 24.5t-54.5 52t-68.5 65t-69 65t-56 53t-29.5 28.5q-29 26 -57 25t-55 -25q-9 -9 -33.5 -31.5t-57 -53.5t-68.5 -64t-66.5 -62t-52.5 -49t-27 -24q-13 -11 -35.5 -12t-39.5 14q-18 16 -17 39
t16 36q5 6 33 32t66.5 62t83 77.5t83 77.5t66 61.5t31.5 30.5q34 33 74 33.5t68 -26.5q5 -5 22 -21.5t42 -40.5t55.5 -53.5t62 -59.5t61.5 -60t55.5 -53.5t42.5 -41.5zM455 412q23 21 54.5 22.5t56.5 -22.5q3 -2 16 -15l34 -31q20 -19 45 -42.5t51 -46.5l135 -126v-171
q0 -19 -15 -34.5t-40 -16.5h-170v140q0 29 -28 29h-172q-15 0 -21 -9t-6 -20q0 -6 -0.5 -28t-0.5 -47v-65h-165q-26 0 -41 12t-15 33v179q73 68 134 123l50 46q25 23 46 42t35 32t17 16z" />
    <glyph glyph-name="uniE680" unicode="&#xe680;" 
d="M510 513q-27 66 -73 109t-96 56.5t-101 2.5t-90.5 -44.5t-63.5 -94t-21 -137.5q1 -25 7 -49.5t15.5 -45t23 -40t28.5 -36t33 -33.5t35.5 -30.5t36.5 -28t35.5 -26.5t34 -26t30.5 -26q46 -43 97.5 -87t69.5 -62q12 12 64 56t103 93q18 19 50 44.5t59 46t57.5 49.5
t52.5 57.5t38.5 66.5t20.5 79q10 113 -42.5 186t-128 87t-155.5 -29t-120 -138z" />
    <glyph glyph-name="uniE681" unicode="&#xe681;" 
d="M122 611zM70 611q0 14 7 26t19 19t26 7q22 0 37 -15.5t15 -36.5q0 -11 -4 -20.5t-11 -16.5t-16.5 -11t-20.5 -4q-14 0 -26 7t-19 19t-7 26zM122 352q-21 0 -36.5 -15t-15.5 -36.5t15.5 -36.5t37 -15t36.5 15t15 36q0 6 -1.5 12t-4 11t-6 9.5t-8 8t-9.5 6t-11 4t-12 1.5z
M122 41q-14 0 -26 -6.5t-19 -18.5t-7 -26t7 -26t19 -19t26 -7q11 0 20.5 4t16.5 11t11 16.5t4 20.5q0 21 -15 36t-37 15zM252 16h698v-52h-698v52zM252 326h698v-52h-698v52zM252 637h698v-52h-698v52z" />
    <glyph glyph-name="uniE682" unicode="&#xe682;" 
d="M876 627v-194h49v218q0 23 -12.5 35t-24.5 13h-12h-217v-48h193q3 0 7 -1t10.5 -7t6.5 -16zM151 627q0 10 6 16t12 7l6 1h193v48h-217q-1 -1 -5.5 0t-12 -1.5t-14 -6.5t-12 -14.5t-5.5 -25.5v-218h49v194zM876 -51q0 -4 -1 -8t-3.5 -6.5t-5 -4.5t-5 -2.5t-4.5 -1.5t-4 -1
h-1h-193v-48h217h3q2 0 7 0.5t9.5 2t10 5t9.5 8.5t7 13.5t3 18.5v218h-49v-194zM151 -51v194h-49v-218q0 -23 12.5 -35t24.5 -13h12h217v48h-193l-14 5q-10 7 -10 19zM102 312h823v-48h-823v48z" />
    <glyph glyph-name="uniE683" unicode="&#xe683;" 
d="M681 149q60 67 79 154t-5.5 173t-88.5 151q-67 67 -157 91t-180 0t-157 -91t-91 -157t0 -180t91 -157q64 -65 150 -89.5t173 -5t155 79.5l265 -266l31 31zM649 178l-28 -29q-60 -52 -136 -68.5t-151 5t-132 77.5q-90 90 -90 217t90 216.5t217 89.5t216 -90
q57 -56 78.5 -131.5t4.5 -151.5t-69 -135z" />
    <glyph glyph-name="uniE684" unicode="&#xe684;" 
d="M512 571l372 -373h-159v-264h-426l-1 264h-156zM936 834v-106h-848v106h848z" />
    <glyph glyph-name="uniE685" unicode="&#xe685;" 
d="M901 688h-776q-22 0 -37 -15.5t-15 -36.5v-672q0 -22 15 -37t37 -15h776q7 0 13.5 2t12 5t10.5 8t8.5 10.5t5 12.5t1.5 14v672q0 10 -4 20t-11 16.5t-16.5 11t-19.5 4.5zM901 -11q0 -10 -8 -17.5t-18 -7.5h-724q-11 0 -18.5 7.5t-7.5 17.5v102l181 187q28 28 52 0
l103 -103l207 206q12 14 25 14t20 -7l7 -7l181 -181v-211zM901 267l-161 164q-9 9 -17.5 15t-16 8t-14 2.5t-12 -1.5t-10.5 -4.5t-8 -6.5l-6 -6l-5 -4l-1 -2l-189 -191l-88 94q-11 14 -24 19t-23 1.5t-19 -9.5t-13 -11l-5 -6l-164 -168v449q0 11 7.5 18.5t18.5 7.5h724
q10 0 18 -7.5t8 -18.5v-343zM254.5 533q-21.5 0 -37 -15.5t-15.5 -36.5q0 -14 7 -26t19 -19t26 -7q22 0 37 15t15 36.5t-15 37t-36.5 15.5z" />
    <glyph glyph-name="uniE686" unicode="&#xe686;" 
d="M310 345zM259 345q0 14 7 25.5t18.5 18t25.5 6.5q20 0 35 -14.5t15 -35.5t-15 -36t-35.5 -15t-35.5 15t-15 36zM512 395q-14 0 -25.5 -6.5t-18.5 -18t-7 -25.5t7 -25.5t18.5 -18.5t25 -7t25.5 7t18.5 18.5t6.5 25.5q0 33 -30 46q-10 4 -20 4zM891 673h-758
q-21 0 -36 -14.5t-15 -35.5v-556q0 -14 7 -25.5t18.5 -18.5t25.5 -7h263l102 -152h27l102 152h264q10 0 19.5 4t16 11t10.5 16.5t4 19.5v556q0 21 -14.5 35.5t-35.5 14.5zM891 92q0 -7 -3.5 -12.5t-9.5 -9t-12 -3.5h-205l1 1h-59l-2 -1l-31 -51l-59 -96l-58 96l-31 51l-60 1
v-1h-204q-5 0 -10 2t-8 5.5t-5 8t-2 9.5v506q0 10 7 17.5t18 7.5h708q10 0 17.5 -7.5t7.5 -17.5v-506zM714 395q-21 0 -36 -14.5t-15 -35.5q0 -14 7 -25.5t18.5 -18.5t25.5 -7q10 0 19.5 4t16 11t10.5 16.5t4 19.5t-4 19.5t-10.5 16t-16 10.5t-19.5 4z" />
    <glyph glyph-name="uniE687" unicode="&#xe687;" 
d="M699 721h-321q-43 0 -75 -30t-32 -71v-7l-31 -1q-28 0 -52 -15t-37.5 -40t-13.5 -52v-541q0 -42 32.5 -75.5t74.5 -33.5h401q43 0 75 30t32 72v7h27q42 0 74.5 33t32.5 75v392v40zM699 666l134 -162h-81q-20 0 -36.5 29t-16.5 52v81zM699 -41q0 -22 -16.5 -42.5
t-37.5 -20.5h-401q-14 0 -29.5 11t-26 27t-10.5 30v541q0 10 6 22t15 21.5t20.5 16t21.5 6.5l30 1v-500q0 -21 8.5 -40.5t23 -34.5t34.5 -24t41 -9h321v-5zM846 72q0 -14 -11 -29.5t-26.5 -26.5t-29.5 -11h-414q-14 0 -26.5 11t-20 26.5t-7.5 29.5v541q0 22 17 44.5t37 22.5
h293v-122q0 -42 26 -68t68 -26h94v-392zM699 342h-241q-11 0 -19 -8t-8 -19q0 -6 2.5 -11t6 -8.5t8.5 -5.5t10 -2h241q11 0 19 8t8 19t-8 19t-19 8zM699 207h-241q-11 0 -19 -8t-8 -19t8 -19t19 -8h241q11 0 19 8t8 19t-8 19t-19 8z" />
    <glyph glyph-name="uniE688" unicode="&#xe688;" 
d="M517 747q95 0 179 -36.5t146 -98.5t98.5 -146t36.5 -179t-36.5 -179t-98.5 -146t-146 -98.5t-179 -36.5t-179 36.5t-146 98.5t-98.5 146t-36.5 179t36.5 179t98.5 146t146 98.5t179 36.5zM663.5 539q-15.5 0 -28 -6.5t-23 -18.5t-16 -28t-5.5 -33q0 -36 21.5 -61.5
t51 -25.5t51 25.5t21.5 61.5q0 17 -5.5 33t-15.5 28t-23 18.5t-28.5 6.5zM373.5 539q-29.5 0 -50.5 -25t-21 -61t21 -61.5t50.5 -25.5t50 25.5t20.5 61.5t-20.5 61t-50 25zM520 198q-51 0 -97 -10t-83 -27.5t-62.5 -41.5t-35.5 -51q-1 -1 -1 -2q-1 -3 -1 -9t2.5 -12t7 -11
t12.5 -6q26 28 63 50q31 20 79 35.5t114 15.5q68 0 117 -15.5t82 -35.5q38 -22 63 -50q18 5 20.5 19t0.5 19t-3 7t-1 3q-27 55 -100.5 88.5t-176.5 33.5z" />
    <glyph glyph-name="uniE689" unicode="&#xe689;" 
d="M360 116q2 -1 4.5 -3.5t5.5 -6t8 -9.5q9 -10 42 -52t52 -64q13 -15 14.5 -15.5t2.5 3.5q6 18 8 24.5t5 19t2.5 20t-4.5 12.5q-10 13 -48 59l-50 58zM372 157q9 47 9 51q0 7 2 13t4.5 9t7.5 5t10 3t13 1h120h2h1q-3 2 -3 6q-2 7 -4 14.5t-5.5 14.5t-8 12.5t-11 9
t-13.5 3.5h-84q-23 0 -22 20q2 22 2.5 69.5t3.5 72.5q1 14 7.5 19.5t19.5 5.5q33 -2 90 0q22 0 23 2q3 4 -18 38q-2 4 -4.5 6.5t-4.5 4t-6 2t-5 0.5h-8h-6h-44h-46h-45h-45q-27 0 -16 30q3 10 10.5 37t9.5 35q4 14 0 14q-2 -2 -19.5 -11.5t-25.5 -14.5t-18 -14.5t-14 -17.5
q-6 -16 -34.5 -91t-43.5 -111q-2 -4 0 -4t14 3q59 14 80 56q10 20 16 26.5t17.5 9.5t30.5 0q9 -1 13 -5t4 -14q-3 -79 -2 -139q0 -15 -6.5 -22.5t-21.5 -6.5q-14 0 -48 -0.5t-48 0.5q-6 0 -12 -2.5t-11.5 -6.5t-10 -9.5t-7.5 -13t-4 -15.5q-1 -4 -2 -7.5t-1 -4.5v-1
q13 0 69 -0.5t69 0.5q15 0 20.5 -5t3.5 -19q-12 -75 -44 -134q-42 -78 -110 -134q-1 -1 -4 -3t-4 -2l-2 -4q-3 -2 -2 -3.5t0 -4.5q3 -9 19 -8q39 2 67 10t49 33q35 43 66 125zM628 41v438h186v-438h-60l-85 -55l-17 55h-24zM874 533h-306v-546h60l18 -66l90 66h138v544v2z
" />
    <glyph glyph-name="uniE68A" unicode="&#xe68a;" 
d="M920 592h-6h-807h-7h-21h-8v-580h879v580h-30zM879 556l-339 -350q-5 -5 -11 -8t-12 -3.5t-12.5 0t-12.5 3.5t-10 8l-340 350h737zM106 541l229 -235l-229 -235v470zM134 49l226 232l97 -101q7 -7 15.5 -12t18.5 -8t20 -3q15 0 29 6t25 17l97 101l225 -232h-753zM915 71
l-228 235l228 235v-470z" />
    <glyph glyph-name="uniE68B" unicode="&#xe68b;" 
d="M515.5 573q33.5 0 57 23.5t23.5 57t-23.5 57t-57.5 23.5q-16 0 -31 -6.5t-26 -17t-17 -25.5t-6 -32q0 -33 23.5 -56.5t57 -23.5zM515 371q-11 0 -21.5 -3t-19 -8t-16 -12.5t-13 -16.5t-8 -19.5t-2.5 -21.5q0 -33 23.5 -57t56.5 -24q17 0 32 6.5t25.5 17.5t17 26t6.5 31
q0 7 -1 14.5t-3.5 14t-6 12.5t-8 11t-10 9.5t-11.5 8t-12.5 6t-13.5 4t-15 1.5zM515.5 7q-33.5 0 -57 -23.5t-23.5 -57t23.5 -57t57 -23.5t57 23.5t23.5 57t-23.5 57t-57 23.5z" />
    <glyph glyph-name="uniE68C" unicode="&#xe68c;" 
d="M399 711h-215q-33 0 -57 -23.5t-24 -56.5v-203q0 -3 1 -7q4 -19 15 -34t28.5 -24t36.5 -9h215q19 1 35 10t26.5 24t13.5 33q1 4 1 7v203q0 21 -10 39t-27.5 29t-38.5 12zM432 439q0 -18 -12.5 -30.5t-30.5 -12.5h-193h-7q-18 0 -30.5 12.5t-12.5 30.5v187q0 12 5.5 21.5
t15.5 15.5t22 6h200q18 0 30.5 -12.5t12.5 -30.5v-187zM920 631q0 32 -22 55t-54 25h-192q-16 0 -31.5 -6t-26 -17t-17 -26t-6.5 -31v-203q0 -3 1 -7q5 -29 27.5 -48t52.5 -19h192q28 2 49 21t26 46q1 4 1 7v203zM877 439q0 -9 -3.5 -16.5t-9 -13.5t-13.5 -9.5t-17 -3.5
h-178q-17 0 -30 12.5t-13 30.5v187q0 6 2 11.5t4.5 10t6.5 8.5t8.5 7t10 4.5t11.5 1.5h178q18 0 30.5 -12.5t12.5 -30.5v-187zM399 252h-215q-33 0 -57 -23.5t-24 -57.5v-202q0 -4 1 -7q3 -14 10 -26.5t17.5 -21.5t24.5 -14.5t28 -5.5h215v1q28 1 49 20t26 47q0 2 0.5 3.5
t0.5 3.5v202q0 16 -6 30.5t-16 25t-24 17.5t-30 8zM432 -20q0 -18 -12.5 -30.5t-30.5 -12.5h-193v0h-7q-12 0 -22 5.5t-15.5 15.5t-5.5 22v187q0 17 12.5 29.5t30.5 12.5h200q12 0 22 -5.5t15.5 -15.5t5.5 -21v-187zM844 252h-192q-34 0 -57.5 -23.5t-23.5 -57.5v-202
q0 -4 1 -7q3 -19 14.5 -34.5t28.5 -24.5t37 -9h163q9 1 15 7t6 14.5t-6 15t-15 6.5h-152v0h-7q-11 0 -21 5.5t-15.5 15.5t-5.5 22v187q0 7 2 13.5t6 11.5t9 9t11.5 6t13.5 2h178q18 0 30.5 -12.5t12.5 -29.5v-146q0 -9 6.5 -15t15 -6t15 6t6.5 15v150q0 11 -3 21t-7.5 18.5
t-11.5 16t-15.5 12.5t-18.5 8.5t-20 4.5z" />
    <glyph glyph-name="uniE68D" unicode="&#xe68d;" 
d="M440 469q0 9 -2.5 18.5t-7 17t-11 14t-14.5 11.5t-17 7.5t-19 2.5q-29 0 -50 -21t-21 -50.5t21 -50t50.5 -20.5t50 20.5t20.5 50.5zM345 492h48v-47h-48v47zM234 49.5q7 -7.5 17.5 -7.5t17.5 8l129 172l143 -101q3 -4 8 -5.5t10 -1.5q11 0 18 7l211 235q7 7 7 17t-7 18
q-5 4 -11 6t-12.5 0t-11.5 -6l-198 -221l-143 102q-8 8 -19 7q-4 0 -7 -0.5t-6.5 -2t-5.5 -4.5l-140 -187q-7 -8 -7 -18t7 -17.5zM915.5 212q9.5 0 16 6.5t6.5 16.5v409q0 14 -4.5 27t-12.5 23.5t-18 18.5t-23.5 12t-26.5 4h-683q-35 0 -60 -25t-25 -60v-683q0 -35 25 -60
t60 -25h683q35 0 60 25t25 60v72q0 6 -3 11t-8 8t-12 3q-9 0 -15.5 -6.5t-6.5 -15.5v-1v0v-66q0 -19 -13 -32t-32 -13h-429h-244q-13 0 -23 6t-16 16.5t-6 22.5v673q0 13 6 23t16 16t23 6h673q12 0 22.5 -6t16.5 -16t6 -23v-404q0 -10 6.5 -16.5t16 -6.5z" />
    <glyph glyph-name="uniE68E" unicode="&#xe68e;" 
d="M943 293q0 117 -58 216t-157 156.5t-216 57.5t-216 -57.5t-156.5 -156.5t-57.5 -216t57.5 -216t156.5 -156.5t216 -57.5q143 0 259 88q5 5 5 12q0 3 -1 6t-2.5 5.5t-4 4t-5.5 2.5t-6 1q-8 0 -14 -6q-103 -76 -230 -76q-106 0 -196 52.5t-142 142t-52 195.5t52 195.5
t142 142t196 52.5t195.5 -52.5t141.5 -142t52 -195.5q0 -49 -11 -95t-33 -87q-1 -4 -1 -6q0 -5 2.5 -9.5t7 -7t9.5 -2.5q13 0 18 13q48 94 49 197zM400 409q0 18 -13 30.5t-31 12.5t-30.5 -12.5t-12.5 -30.5q0 -9 3 -17t9 -14t14 -9.5t17 -3.5q12 0 22 6t16 16t6 22z
M670 452q-12 0 -22 -6t-16 -16t-6 -21q0 -9 3.5 -17t9.5 -14t14 -9.5t17 -3.5q18 0 30.5 13t12.5 31t-12.5 30.5t-30.5 12.5zM702 169q0 9 -6 15.5t-15 6.5q-2 0 -4 -1h-1h-1q-84 -39 -162 -39q-28 0 -56.5 5t-53.5 13t-50 20h-1q-4 2 -7 2q-9 0 -15 -6.5t-6 -15.5
q0 -13 11 -19q94 -43 177 -43t178 43q12 7 12 19z" />
    <glyph glyph-name="uniE68F" unicode="&#xe68f;" 
d="M949 381.5q-7 5.5 -15.5 4.5t-14.5 -8l-37 -46q-1 14 -2.5 27t-4.5 27q-17 81 -63.5 149.5t-112 110t-145 59t-161.5 -0.5q-108 -23 -189 -96t-115 -176.5t-11.5 -213t95 -190.5t175.5 -115.5t211 -11.5q59 12 110.5 40.5t92.5 70.5h1q0 1 0.5 2t1.5 1q3 5 3 9
q0 5 -2.5 9t-6.5 6.5t-9 2.5q-8 0 -13 -6q-38 -37 -84.5 -63t-100.5 -37q-74 -17 -146 -1t-131 54t-101.5 99.5t-57.5 135.5q-21 98 10 192t104.5 160t171.5 87q74 17 146 1t131 -54t101.5 -99.5t57.5 -135.5q3 -11 4.5 -22.5t2.5 -23.5l-45 36q-7 6 -15.5 5t-14 -8
t-4.5 -16t8 -15l82 -66q7 -6 16 -5t14 8h1l65 83h1q5 7 4 16t-8 14.5z" />
    <glyph glyph-name="uniE690" unicode="&#xe690;" 
d="M950 302q0 89 -35 170t-93.5 140t-139.5 93.5t-170 34.5t-170 -34.5t-140 -93.5t-93.5 -140t-34.5 -170t34.5 -170t93.5 -139.5t140 -93.5t170 -35q145 0 263 90q5 6 5 13q0 8 -5.5 13.5t-13.5 5.5q-4 0 -7.5 -1.5t-6.5 -4.5q-105 -77 -235 -77q-107 0 -198.5 53
t-144.5 144t-53 199t53 199.5t144.5 144.5t199 53t199 -53t144.5 -144.5t53 -199.5q0 -100 -45 -185q-1 -4 -1 -6q0 -4 1.5 -7.5t4 -6t6 -4t7.5 -1.5t7.5 1.5t6.5 4.5t4 6q50 96 50 201zM507 536q0 9 -6 15t-15 6t-15 -6t-6 -15v-249v-4q0 -3 2 -10t6 -12.5t12.5 -10
t21.5 -4.5h225q4 0 8 1.5t7 4.5t4.5 6.5t1.5 8.5q0 8 -6 14t-15 6h-225v249z" />
    </font>
</defs>
</svg>
